&title=胡蝶乃舞
&artist=Srav3R
&first=1.385
&des=SetDesigner
&lv_5=14
&inote_5=(180)
{8}
B8,,,B7,,,B6,,,,,
{16}
E2,B2,B3,,,,E5,,,,
{8}
B1,,,B2,,,B3,,,,,
{16}
E8,B7,B6,,E5,,E4,,,,
6/4,,6,,1,,6,5,6,5,6,,1/2,,3,4,3,,1/2,,4,5,4,6,4h[8:1],,5,4hx[8:1],,,7,,
3/5,,3,,8,,3,4,3,4,3,,8/7,,6h[8:1],,B4,,3/5h[8:1],,2,,1,,
{12}
8xw4b[8:1],8x,8x,8bx/Cf,,,
{16}
2h[8:2]/7h[8:2],,,,,,3h[8:3],,5>1pp6[8:8],,,,,,,,,,,,,,,,4bx,,,,,,,,
7h[8:2]/5h[8:2],,,,,,6h[8:3],,4<8qq3[8:8],,,,,,,,,,,,,,,,5bx,,5x,,6x,,6x,,
4/5,,4,,3,,3,,2/6,,2,,1,,1,,
8bx,7,6,5/4,3,2,1,8,
{12}
5x,6x,7x,1x,2x,3x,
{16}
4bx/Ch[8:8],,,,,,,,,,,,,,,,
2,,,,2,,,,2,,,,2b,,,,
6,5,6,5,7x,5,6,5,8bh[8:2],,,,,,,,
3,4,3,4,2x,4,3,4,1bh[8:2],,,,,,,,
1/5,,2,,3,,4/7h[8:3],,8,1,2,3,4,5,6,7,8b<1[8:4],,,,,,,,,,,,8xw4b[8:1],,,,8,,,,
5,,,,3h[8:1]/4h[8:1],,,,2h[8:1]/4h[8:1],,,,3-5[8:1],,,,7/3,,,,
6h[8:1]/5h[8:1],,,,C,,,,
6h[8:1]/5h[8:1],,,,7h[8:1]/5h[8:1],,,,6h[8:1]/5h[8:1],,,,8h[8:1]/5h[8:1],,,,
3h[8:1]/4h[8:1],,,,2h[8:1]/4h[8:1],,,,3<5[8:1],,,,7h[8:1]/3,,,,
1-3[8:1],,7,,1x,,7,,5-3[8:1],,7,,5x,,7,,2-5[8:1],,7,,2x,,7,,8-3b[8:1],,7,,8x,,,,
5h[8:1]/4,,,,1,,B8,B7,B6,B5,B4,,8,,B1,B2,B3,B4,B5,,1,,E1,E8,E7,E6,E5,,2x,,,,
7-5[8:1],,,,7/1-5[8:1],,,,1/7-1[8:1],,7,,4h[8:1],,,,2<7[8:1],,,,5>2[8:1],,5,,
,,6,,6,,3,4,3-1-5b[8:2],,,,5-3-7[8:2],,,,6,,6,,6,,,,8>3[8:1],,,,8-5[8:1]/6,,,,8/3h[8:1],,,,3h[8:1],,,,1>5[8:2],,,,5<1[8:2],,,,1>5b[8:2],,,,5,,6,,7qq4[8:4],,,,7/1,,,3hx[8:1],,,3hx[8:1],,,,2/5,6,7,,5x/1x,,6,,8x/3,,2,,7/1,,2/4,,3/5,,4v2[8:1]/6,,,,4-8[8:1],,,,4v6[8:1],,,,4qq1b[8:4],,,,6-8[8:1],,,,6b-3b[8:1],,,,6,,,,2h[8:2]/4v7[8:1],,,,4/1>4[8:1],,2,,1s5b[8:2],,,,5z1b[8:2],,,,,,,,6bv3[8:1],,,,6/2,,,,1/5h[8:1],2,3,4,5h[8:2]/1hb[8:2],,,,,,8hx[8:1]/4hx[8:1],,,7x/3x,,,2/6,,2,,8/2,,,,
6/4-2[8:1],,5,,4/6-8[8:1],,5,,6/3-1[8:1],,4,,3/6-1[8:1],,5,,6/4-8[8:1],,5,,4/6-2[8:1],,1,2,3-8[8:1]/6-4[8:1],,,,3/6,,,,
7h[8:1]/2h[8:1],,,,6h[8:1]/3h[8:1],,,,
1bx/5bx,,,2bx/6bx,,,7bx/3bx,,8bh[8:2]x/4bx,,,,4>8[8:2],,,,8,7,6,5,4,3,2,1,8/4,,,,,,,,
B2,,,,,,,,B7,,,,B6,,,,E6,,,,,,
B2,B3,E4,,,,C,,B7,,,,B6,,E1,B1,B2,E3,E6,
,E4,,E7,,E3,,E8,,B3,B4,E5,,C,,
6/5,,6,,6/4,,
3,4,2,4,3,,7,,6,,
8/2,,
3,1,3,1,3,,
1/7,,
6,8,6,1,6,,
8/2,,3,,7/1,,6,
2,3,4,5/7,,
B1/B2,,E4/B4,,Chf[8:8],,,,,,,,,,,,,,,,
1b-3v8-5[8:4],,,,,,,,5b-3v6[8:4],,,,,,,,6b<4[8:6],,,,,,,,,,,,,,,,
8b<5v3[8:4],,,,,,,,3b-1-5[8:4],,,,,,,,5b-3-7[8:4],,,,3,,,,1,,1x,2x,3x,,3x,,
8<5[8:1],,,,8>3[8:1],,,,8/4w8b[8:1],,,,4,,,,
6-3[8:1],,,,2,,2-7[8:1],,,,5,,5<8[8:1],,,,1w5[8:1]/5,,,,1b,,,,8w4b[8:1],,,,8b,,,,
5<4[8:6]/Ch[8:8],,,,,,,,,,,,,,,,,,,,,,
6,,B6,,C,,,,,,
1,,,,,,,3x,3x/C,,,,,,,,
8,,,,,,,,5,,8,,,,,,8>3[8:2],,,,3<6[8:2],,,,6q4b[8:2],,,,,,,,
1,,1,,2/8,,2,,3/7,,3,,4/6,,4,,
5bx,6,7,8/1,2,3,4,5,
{12}
8bx,4bx,6bx,1bx,4bx,2bx,
{16}
7hbx[8:8],,,,,,,,,,,,,,,,
1,,,,1,,,,1,,,,
1/5,2/6,3/7,4/8,1bx-6[8:1]/5bx-2[8:1],,,,1-4-8[8:2]/5,,,,1/5h[8:2],,,,,,
6,5,7,,1/3,,
8-2-4[8:2],,7,,8/5h[8:2],,,,,,
7,8,1/6-4[8:1],,,,2-6[8:1],,2,,,,8x<5[8:1],,4,3,2,1,8-4b[8:1],,6,,8,,7x,,2,,2x/6x,3x/7x,4x/8x,,8bx/4bx,,
2bx-7[8:1]/6bx-3[8:1],,,,2-4-8[8:2]/6,,,,2/6h[8:2],,,,,,7,5,6,,8/2,,1-7-5[8:2],,2,,1/3,,,,4,,3,,2-4[8:1],,,,/26,,6-2[8:1],,,,1>4b[8:1],,1,,1<6[8:1],,,,1/5h[8:1],,,,
{24}
4x,3x,2x,1bx/7bx,,,
6x,5x,6x,5x,,,
{16}
8x/4x,,
2-5b[8:1],,1,,8,,7-1-5[8:2],,6,,5,,3,,2x,2x,
8-5b[8:1],,1,,2,,3-1-5[8:2],,4,,5,,6,,
7x,7x,2x-6[8:1],,7,,2,,8-4[8:1],,3,,8,,
1,2,3/5,6,7/1,,3,,8/2,,5,,3b/7b,,1b,1b,1b,,8b/2b,,
3x,B3f,,7x,B7f,,1x,B1f,,5x,B5f,,
{32}
A1,D2,A2,D3,A3,D4,
{16}
A4,
6,B6f,,2,B2f,,8,B8f,,4,B4f,,
7,,7,,
1/2,,3,,5/4,,6,,
1,2,7,6,2,3,6,5,
1b>2>3<4<5<6<7>8[8:4],,,,,,,,,,
6,5,4,3,2,1,8/4,,
2,1,2,1,3,,6/4,,
8,7,1,6,8,,2/4,,
7,8,,5,4,,
8/2,,4,,7,8,7,,
1>3[8:1],,2,,8/1,7,6,,
5<7[8:1],,6,,4/5,3,2,,
8,1,,7/2,,1,8,,
3,4,,6/2,,7,8,,2b-4-1-5[8:3],,,,,,,,
7bq1[8:2],,,,,,4,,4<6-2[8:2],,,,2x<8-4b[8:2],,,,7b-5[8:1],,,,,,,,
3,,4,,8,,7,,4,3,2,1,8,7,6,5,4h[8:3]/8h[8:3],,,,,,,,
E2,E3,E4,E5,E6,E7,E8,E1,
