&title=ブレインロット
&artist=東京真中 & 重音テト
&first=0
&des_5=Hatsune Miku
&lv_5=13+
&des=Hatsune Miku
&clock_count=4
&inote_5=(135){4},,,,5/3h[8:1],
4/6h[8:1],5/3h[8:1],4/6h[8:1],
4/3h[8:1],5/6h[8:1],3h[8:1]/E4,6h[8:1]/E6,
5`3h[8:1],4`6h[8:1],5`3h[8:1],4`6h[8:1],
4`3h[8:1],5`6h[8:1],E8`B6`B7`E6`E7,E2`B3`B2`E4`E3,
{8}5x/7x-5[8:1],8,1,2,7-5[8:1],8,1,2,
3h[8:1],1,4h[8:1],1,{2}4-8[8:1]/1-7[8:1],
{8}8x/6x-8[8:1],5,4,3,6-8[8:1],5,4,3,
4-2[8:1],6-4[8:1],4x,6x,1-4[8:1],5,{4}1x/4,
{8}7-4[8:1],8,1,2,7-4[8:1],8,1,2,
3-1[8:1],4,5-3[8:1],6,5x-1[8:1],6,7xs3[2:1],8,
1xh[2:1],,,,,4-2[8:1],{4}1,
{8},5-7[8:1],{4}8,E2`B3`B2`E4`E3,E8`B6`B7`E6`E7,
{48}8x-2v3-5-8[1:1],1x,{24}2x,{1},{4},{24},{8}E4,
B3,B2,{4}E2,
{1}8z4[1:1]*-5[1:1],
{8},,,E3,E2,E1,E8,E7,
{48}5x,4x,{24}3xp6<7p2>3[24:23],{1},{4},{24},{8}4,
5,6,1>8[32:31],1,
{2}1h[16:7],1xV35V71b[4:1],
{4},E7/B6/B5/E5/C/E3/B2/B1/E1,E8/B8/B1/E2/C/E5,B8/B7/E7/B6/B5/E1,
{8}5x/4x,4x-2[12:1],{48}D8,A7,{24}D7,,{8}4x-6[12:1],{48}D1,A1,{24}D2,,{8}4x-2[12:1],{48}D8,A7,{24}D7,,{8}4x-6-8-5V31[2:1],
{48}D1,A1,{24}D2,,,,,,,,,,,,,,{8}7,6,5,
4/5,5x-7[12:1],{48}D2,A2,{24}D3,,{8}5x-3[12:1],{48}D1,A8,{24}D8,,{8}5x-7[12:1],{48}D2,A2,{24}D3,,{8}5x-3-1-4V68[2:1],
{48}D1,A8,{24}D8,,,,,,,,,,,,,,{8}2,3,4,
5/6,6x-8[12:1],{48}D3,A3,{24}D4,,{8}6x-4[12:1],{48}D2,A1,{24}D1,,{8}6x-8[12:1],{48}D3,A3,{24}D4,,{8}6x-4-2-5[8:3],
{48}D2,A1,{24}D1,,{8}2x,1,8,8-4[8:1],7-3[8:1],8x<1>8[8:11],7x,
,,,,,7-4b[8:1],6,7x,
,2-5b[8:1],3,2x,{4}E7`B7`B8`E1,E3`B3`B4`E5`Cfh[4:1],
{8}8x,8bx<6[12:1],{48}D4,A3,{24}D3,,{8}8x>2[12:1],{48}D5,A5,{24}D6,,{8}8x<6[12:1],{48}D4,A3,{24}D3,,{8}8x-4-6-3-1[8:3],
{48}D5,A5,{24}D6,,,,,,,,,,,{12}8-4-2[6:1],{24}8,1,,,{4}8/7,
{8}1x,1x>3[12:1],{48}D6,A6,{24}D7,,{8}1x<7[12:1],{48}D5,A4,{24}D4,,{8}1x>3[12:1],{48}D6,A6,{24}D7,,{8}1x-5-3-6-8[8:3],
{48}D5,A4,{24}D4,,,,,,,,,,,{12}1-5-7[6:1],{24}1,8,,,{4}1/2,
{8}2x,2bx<8[12:1],{48}D6,A5,{24}D5,,{8}2x>4[12:1],{48}D7,A7,{24}D8,,{8}2x<8[12:1],{48}D6,A5,{24}D5,,{8}7x-4[8:1],
3-1b[8:1],7-1[8:1],3-7[8:1],7<4[8:1],{2}3x>8-4b[4:1],
{8}5x,5x-7[8:1],,2/5-3[8:1],,5/8-4[8:1],7x,8/2x,
,2-5[8:1],4,2/6x,{4}E7`B7`B8`E1,E3`B3`B4`E5,
{8}Cfh[4:1],7x,8xp3b[8:1],1,{4}2/8q5b[8:1],4x/8p3b[8:1],
2/8q5b[8:1],4x/8p3<6p2b[8:3],{8}2/8,1,{4}8h[4:1],
{8},2,1q6[8:1],8,{4}7/1p4[8:1],5x/1q6[8:1],
7/1p4[8:1],{8}5x/1,8x,1h[12:1],3h[12:1],5h[12:1],6h[8:1],
{64}E6,B5,B4,B3,{16}E3,,,{8}1bp4[8:1],2,{4}3/1q6[8:1],5/1p4[8:1],
3/1q6[8:1],5/1p4<7p3[8:3],{8}3/1,2,{4}1h[4:1],
{8},2,1q6[8:1],8,{4}7/1p4[8:1],5/1q6[8:1],
7/1p4[8:1],{8}5/1,{24}8x,,8,{12}2x,{24}2x,4x,,4,{8}5xw1[8:1],5h,
{48}B5f,C,{24}B1,{1},{4},{24},{8}E6/D6,
B5/A5,B4/A4,{4}E4/D4,
{8},,,,,,,,,,,A5/B5,
E5/D5,B4/A4,B3/A3,B2/A2,
,1xpp6[8:7],,,,,,,,,,E5,
E4,E3,E2,E1,
{1}Ch[1:1],
{64},,,,,,,,,,,,,,,,E8`B7`B6`E6`C,E2`B2`B3`E4,,,,,,,,,,,,,,,{4}E8`B8`B1`E2`C`E5,E1`B8`B7`E7`B6`B5,
{8}4,4-2[12:1],,4-6[12:1],,4-2[12:1],,4,
,6/2,7/3,8/4,{2}5>1b[8:1]`1<5[8:1],
{8}8b`4,1b-3b[12:1]`5,{48}A6,D7,{24}A7,,{8}1x-6b[12:1],{48}A5,D5,{24}A4,,{8}1x-3b[12:1],{48}A7,D8,{24}A8,,{8}1x,
{12}8,{24}8,6,,6,{8}4>6b[4:1],1,{2}4/1h[4:1],
{8}6/2,4/8-6[12:1],{48}A3,D3,{24}A2,,{8}8x-3[12:1],{48}A4,D5,{24}A5,,{8}8x-6[12:1],{48}A2,D2,{24}A1,,{8}8x,
1x-3[8:1],5-7[8:1],1-7[8:1],5-2[8:1],1x-4[8:1],5x-8[8:1],1x,5x,
2x,1-3[8:1]*-4[8:1],,1-7[8:1]*-6-8-4[8:3],,,,1V38-4b[8:3],
,5,6,7,{4}E8/B7/B6/E6,E4/B3/B2/E2,
{8}C,8b-6[12:1],{48}A3,D3,{24}A2,,{8}8-3[12:1],{48}A4,D5,{24}A5,,{8}8-6[12:1],{48}A2,D2,{24}A1,,{8}8,
{12}1,{24}1,3,,3,{8}5<3[4:1],8,{2}5/8h[4:1],
{8}3/7,5/1-3[12:1],{48}A6,D7,{24}A7,,{8}1-6[12:1],{48}A5,D5,{24}A4,,{8}1-3[12:1],{48}A7,D8,{24}A8,,{8}1,
{12}8,{24}8,6,,6,{8}4>6[4:1],1,{2}4/1h[4:1],
{8}5,2/4<7[12:1],{48}D2,A2,{24}D3,,{8}4>1[12:1],{48}D1,A8,{24}D8,,{8}4<7[12:1],{48}D2,A2,{24}D3,,{8}4-2-8-3[4:1],
{48}D7,A6,{24}D6,,{8}5x,6x,7x,{12}4,{24}4,6,,6,{12}5x<4>1[1:1],{24}5,8,,8,
{8}Cf,,,4x,,4x-1b[8:1],5,4x,
,8-5b[8:1],1-4[8:1],8,1b,B7/E7/B6/Ch[8:1],
E
