&title=なな
&artist=いめ44
&first=0.77
&des=7
&lv_5=7
&inote_1=
&inote_5=(130)
{7},
{1},
{16}3^6[8:1]/7h[16:3],,,,7,,,8h[8:2],,7x,6x,5x,7x,6x,5x,4x,3x<1[4:1]/2xh[16:3],,,,2,,,2h[8:2],,3x,4x,5x,1x,2x,3x,4x,5x-1[8:1]/6xh[16:3],,,,6,,,7h[8:2],,8x,1x,2x,8x,7x,6x,5x,E4,B3,B2,E2,E5,B5,B6,E7,E4,B3,B2,E2,E5,B5,B6,E7,1s5[4:1],,,,,,,8h[8:2],,4x,3x,2x,1x/7x,6x,5x,4x,3xq8[16:3]/2xh[16:3],,,,2,,,2h[8:1],,7x,6x,5x,4x/1x,2x,3x,4x,5xp4[4:1]/7xh[16:3],,,,7,,,6h[8:2],,3x,2x,1x,8x/7x,6x,5x,4x,E4,B3,B2,E2,E8,B7,B6,E6,E3,B2,B1,E1,E7,B6,B5,E5,Ch[8:14],
{16},,,7,,7,7,,7,,,,,7,7,7,,7,,7,,7,7h[16:29],,,,,,,,,,,C,C,C,,B7,E7,,C,,E7,B7,,C,C,C,,E7/B7,,E7/B7,,C,C/7>7[2:1],,,,,,,,,C,,C,,Ch[16:3],,7,7h[4:1],,B7/E7,,C,7h[8:1],,Ch[2:1],,D7,,E7,,B7,,7h[4:1],,,,C,7/C,,7,7h[16:9],,C,,D7,,C,,B7h[16:6]/E7h[16:6],,,,A7,,D7,,A7,,Ch[8:5],,7,,B7/E7,,7,7h[16:7],,,,,,E7,E7,,C/7p7[2:1],,,,,,,,,,,,,,,,C/7q7[2:1],,,,,,,,,,,,,,,,Ch[8:1]/7,,7,,B7/7h[8:1],,B7,,Ch[8:1]/7,,7,,B7/7<7[4:3],,B7,,,,,,,,Cf,,,,,,,,,,
Ch[16:7]/A7/E7/D7/B7,,,,7,7,,B7/E7,,7h[16:3],,E7,B7,,C,,C/7h[16:7],,,,C,C,,B7/E7,,Ch[16:3],,B7,E7,,7,,7/Ch[16:7],,,,
7,7,,B7/E7,,7h[16:3],,E7,B7,,C,,E7h[8:1],,Ch[8:1],,7h[8:1],,B7h[8:1],,7h[8:1],,Ch[8:1],,B7/E7/A7/D7,,,,
Cf,,,,,,,B7/D7,,A7/Ch[16:3],,B7,E7,,7,,7/Ch[16:7],,,,7,7,,B7/E7,,7h[16:3],,E7,B7,,C,,C/7h[16:7],,,,C,C,,B7/E7,,Ch[16:3],,B7,E7,,7,,7/Ch[8:1],,7h[8:1],,B7h[8:1],,7h[8:1],,Ch[8:1],,7pp7qq7[4:3],,B7,,E7,,Cf,,,,,,,,,,,,
,,7,B7,7,C,7,B7h[16:3],,,7,C,7,B7,7,Ch[16:3],,,7>7[16:9]*<7[16:9],,B7,,,,,,,,,,,,,,
C,B7,C,7,C,B7h[16:3],,,C,7,C,B7,C,7h[16:3],,,B7,,7pp7[2:1]*qq7[2:1],,,,,,,,,,,,,,
B7,C,7,C,B7,Ch[16:3],,,7,B7,7,C,7,B7h[16:3],,,7p7>7[8:9]*q7<7[8:9],,C,,,,,,,,,,,,,,,,,,,,,,,,Cf,,,,,,,,
{16}Ch[16:3]/7xpp7[4:1],,,,7x,,,Ch[16:2],,D7,E7,A7,C,D7,E7,A7,Ch[16:3],,,,7x,,,7h[16:3]/C,,E7,B7,C,A7,D7,E7,B7,Ch[16:4]/7xqq7[4:1],,,,7x,,,Ch[16:2],,E7,D7,A7,C,E7,D7,A7,Ch[8:6]/B7,E7,D7,A7,B7,E7,D7,A7,B7,E7,D7,A7,B7,E7,D7,A7,Cf,,,,,,,Ch[16:2],,A7,E7,D7,C,A7,E7,D7,Ch[16:3],,,,7x,,,7h[16:3]/C,,E7,B7,C,A7,D7,E7,B7,Ch[16:4]/7xpp7[4:1],,,,7x,,,Ch[16:2],,D7,E7,A7,C,D7,E7,B7,C/A7,D7,E7,B7,A7/C,D7,E7,B7,A7/C,D7,E7,B7,A7/C,D7,E7,B7,7bxV15[7:7],,,,,,,,,,,,,,,,,,,,,,E
