&title=君色のキセキ
&artist=小倉唯
&first=-0.78
&des=reflectW
&lv_5=12
&inote_5=(168)
{1},4z8[2:3]/5s1[2:3],
{16},,,,,,,,,,,,,,,,
{16}3h[2:1],,,,,,,,5h[2:1],,,,,,,,
{16}4V25[2:1]*q5[2:1],,,,,,,,,,,,,,,,
{16}6h[2:1],,,,,,,,4h[2:1],,,,,,,,
{16}5V74[2:1]*p4[2:1],,,,,,,,,,,,,,,,
25,,,,47,,,,25,,,,6,,6h[4:1],,
,,5<3[2:1],,4,,3,,,,,,,,,,
4,5,4,5,4,,2-5[8:1]/7,,,,2/7-4[8:1],,,,3-8[8:1]/7,,
,,73,,7,,72,,1,8,1,8,2,7,2,7,
3^1[8:1],,,,5h[4:1],,,,8-3[8:1],,5^8[8:1],,8,,5,,
,,4-1[8:1],,8,,4,,,,5,,2,8,2,,
6^8[8:1],,,,4h[4:1],,,,1-6[8:1],,4^1[8:1],,1,,4,,
,,5-8[8:1],,1,,5,,,,4,5,3,,,,
7-4[8:1],,,,3-8[8:1],,,,5h[4:1],,,,1,,1h[4:1],,
,,8V64[4:1],,8,,4q8[4:1],,,,,,3,,3,,
7h[4:1],,,,2,,8-4[8:1],,,,8^5[8:1]*^3[8:1],,,,8,,
,,,,36,,4,5,4w8[4:1],,,,,,,,
,,,,2h[4:1],,,,4h[4:1],,,,5h[4:1],,,,
7h[4:1],,,,1q6[8:2]*q5[8:2],,1,,,,,,,,,,
2h[4:1],,,,7h[4:1],,,,5h[4:1],,,,4h[4:1],,,,
2h[4:1],,,,3<7[8:2]*qq1[8:2],,3,,,,,,,,,,
7h[16:6],,,,,,4,,,,56,,,,,,
3h[16:6],,,,,,8,,,,12,,,,4,5,
4,5,4,5,4,,3/6h[4:1],,,,4h[4:1],,,,8h[4:1],,
,,1-5[8:1],,2,,3h[4:1],,,,6,4,7,,,,
2h[4:1]/5,,,,6,,,3,4,,2,,5h[4:1],,,,
4q8[8:1],,3,,42,,,,2-5[8:1],,1-6[8:1],,2,,1,,
4h[4:1],,,,8,,,2,1,,3,,8h[4:1],,,,
1p5[8:1],,2,,13,,,4,6,,1,,1,,6,5,
7h[4:1],,,,3,,,6,5,,7,,4h[4:1],,,,
7v4[8:1],,3v8[8:1],,7,,3,,,,5,,3,,6,4,
5^8[8:1],,,,1^4[8:1],,1,,,,6,,,,3qq4[8:5]/5pp4[8:5],,
,,,,,,,,,,,,,,,,
1-5[4:2],,,,,,,,,,,,,,,,
1-4[4:2]*-6[4:2],,,,,,,,,,,,,,,,
1w5[4:2],,,,,,,,,,,,,,,,
3b/7b,,,,1b,,1b,,,,6^1[8:1],,5,,6,,
,,3^8[8:1],,4,,3,,,,7-4[8:1],,5,,7,,
,,2-5[8:1],,4,,2,,,,8-4[8:1],,4,,8,,
3b,,3b^1[8:1],,,,3b/7b^5[8:1],,,,7b/1b-5[8:1],,,,1b/5b,,
,,3b-8[8:1]/7b-4[8:1],,4b/8b,,3b/7b,,,,1,,2^5[8:1]/6,,,,
2/7-4[8:1],,,,7/1-5[8:1],,,,1/6-1[8:1],,,,6/4,,4>8[4:1],,
,,8V25[8:3],,7,,6-1[8:1],,,,,,,,8,,
8h[4:1],,,,2,,2h[4:1],,,,1<2[4:2],,,,16,,
,,,,,,,,,,8,,1-6[8:1]/7,,,,
2/1-4[8:1],,,,8/1-5[8:1],,,,1/3-7[8:1],,,,3/6,,6V82[4:1],,
,,2V86[8:2],,3,,4,,,,4^1[8:1],,5^8[8:1],,4,,
5,,,,1,,1pp3[8:1],,,,7qq5[8:1],,,,1,,
,,26,,47,,6,5,7,,3,4,2,,,,
7/2-5[8:1],,,,2/8-4[8:1],,,,8/3-8[8:1],,,,3/5,,5<1[4:1],,
,,1V74[8:3],,2,,3-8[8:1],,,,,,,,1,,
1h[4:1],,,,7,,7h[4:1],,,,4pp8[4:2],,,,24,,
,,,,,,,,,,1,,8-3[8:1]/2,,,,
7/8-5[8:1],,,,1/8-4[8:1],,,,8/6-2[8:1],,,,6/3,,3>7[4:1],,
,,7>3[8:2],,6,,5,,,,5-8[8:1],,4-1[8:1],,5,,
4,,,,8,,8<4[4:1],,,,4>8[4:1],,,,8,,
,,3,,3,,,,,,64,,6,,5pp4[4:5]/3,,
3qq4[8:9],,,,,,,,,,,,,,,,
,,,,,,,,,,18,18,18,,,,
2h[4:1],,,,7,,7h[4:1],,,,4h[4:1],,,,6,,
,,1^4[8:1]/5pp8[4:5],,26,,1pp4[4:4]/5,,,,,,,,,,
