&title=銀河録
&artist=はるまきごはん
&first=0.73
&des=InuMaru vs. くろおおかみ
&lv_2=6
&lv_4=9
&lv_5=11
&inote_1=(98){4}
1/8h[8:3],1,2,2,
2/7h[8:3],2,3,3,
3/6h[8:3],3,4,4,
4/5h[8:3],4,4,4b,
8<5[4:1],,8-4[4:1],,
1>4[4:1],,1-5[4:1],,
6,,6,,6,,6,,
8qq4[4:1],,1-5[4:1],,
1qq5[4:1],,8-4[4:1],,
3,,3,,3,,3,,
8<8[2:1],C,,,4>4[2:1],C,,,
1<1[2:1],C,,,5>5[2:1],C,,,
8<8[2:1],C,,,4>4[2:1],C,,,
1<1[2:1],C,,,5>5[2:1],C,,,
{8}
6h[4:3],,,3h[8:3],,,Chf[4:1],,
{32}
,1h[16:3],,,,,,2h[4:1],,,,,,,,3h[4:1],,,,,,,,,,,,,,,,,
,2h[16:3],,,,,,3h[4:1],,,,,,,,4h[4:1],,,,,,,,,,,,,,,,,
,3h[16:3],,,,,,4h[4:1],,,,,,,,5h[4:1],,,,,,,,,,,,6,,,,,7,,,,,8,,,,,,B8,,,,Cf,
&inote_2=(98){4}
1/8h[8:3],1,2,2,
2/7h[8:3],2,3,3,
3/6h[8:3],3,4,4,
4/5h[8:3],4,4,4b,
8<5[4:1],,8-4[4:1],,
1-5[4:1],,1>4[4:1],,
5,,5,,5,,5,,
8qq4[4:1],,1-5[4:1],,
1pp5[4:1],,8-4[4:1],,
3,,3,,3,,3,,
8<8[2:1],C,,,4>4[2:1],C,,,
1>1[2:1],C,,,5<5[2:1],C,,,
8>8[2:1],C,,,4<4[2:1],C,,,
1<1[2:1],C,,,5>5[2:1],C,,,
{8}
6h[8:5],,,3h[8:3],,,Chf[4:1],,
{32}
1h[16:3],,,,,,2h[16:5],,,,,,,,3h[4:1],,,,,,,,,,,,,,,,,,
2h[16:3],,,,,,3h[16:5],,,,,,,,4h[4:1],,,,,,,,,,,,,,,,,,
3h[16:3],,,,,,4h[16:5],,,,,,,,5h[4:1],,,,,,,,,,,,,6,,,,
,7,,,,,8,,,,,,B8,,,,Cf,,,,,,,,,,,,,,,,,
{8}
2,2,3,3,4,4,5,5h[4:1],,,
7,7,1h[8:1],,1b,,,,
1,1,2,2,3,3,4h[2:1],,5h[4:1],,,,4b/5b,,
&inote_3=(98){4}
1/8h[8:3],1,2,2,
2/7h[8:3],2,3,3,
3/6h[8:3],3,4,4,
4/5h[8:3],4,4,4b,
8<5[4:1],,8-4[4:1],,
1>4[4:1],,1-5[4:1],,
6,,6,,6,,6,,
8qq4[4:1],,1-5[4:1],,
1qq5[4:1],,8-4[4:1],,
3,,3,,3,,3,,
8<8[2:1],C,,,4>4[2:1],C,,,
1<1[2:1],C,,,5>5[2:1],C,,,
8<8[2:1],C,,,4>4[2:1],C,,,
1<1[2:1],C,,,5>5[2:1],C,,,
{8}
6h[4:3],,,3h[8:3],,,Chf[4:1],,
{32}
,1h[16:3],,,,,,2h[4:1],,,,,,,,3h[4:1],,,,,,,,,,,,,,,,,
,2h[16:3],,,,,,3h[4:1],,,,,,,,4h[4:1],,,,,,,,,,,,,,,,,
,3h[16:3],,,,,,4h[4:1],,,,,,,,5h[4:1],,,,,,,,,,,,6,,,,,7,,,,,8,,,,,,B8,,,,Cf,
&inote_4=(98){4}
1/8h[8:3],1,2,2,
2/7h[8:3],2,3,3,
3/6h[8:3],3,4,4,
4/5h[8:3],4,4,4b,
8<5[4:1],8,8-4[4:1],8,
1-5[4:1],1,1>4[4:1],1,
5,B4/B5,4/E5,B4/B5,5/E5,B4/B5,4/E5,B4/B5,
8qq4[4:1],8,1-5[4:1],1,
1pp5[4:1],1,8-4[4:1],8,
5,B4/B5,4/E5,B4/B5,5/E5,B4/B5,4/E5,B4/B5,
8<8[2:1],C,,C,4>4[2:1],C,,C,
1>1[2:1],C,,C,5<5[2:1],C,,C,
8>8[2:1],C,,C,4<4[2:1],C,,C,
1<1[2:1],C,,C,5>5[2:1],C,,C,
{8}
6h[8:5],,,3h[8:3],,,Chf[4:1],,
{32}
1h[16:3],,,,,,2h[16:5],,,,,,,,3h[4:1],,,,,,,,,,,,,,,,,,
2h[16:3],,,,,,3h[16:5],,,,,,,,4h[4:1],,,,,,,,,,,,,,,,,,
3h[16:3],,,,,,4h[16:5],,,,,,,,5h[4:1],,,,,,,,,,,,,,6,,,,
7,,,,,8,,,,,,B8,,,,Cf,,,,,,,,,,,,,,,,,
{8}
2,2,3,3,4,4,5,5h[4:1],,
7,7,1h[4:1],,,,1b,,
1,1,2,2,3,3,4h[2:1],,5h[4:1],,,,4b/5b,,,
{4}
7<4[8:1],7>2[8:1],,
2>5[8:1],2<7[8:1],,
7pp4[4:1],7,3h[8:1],
4qq1[4:1],4,8h[8:1],
1pp5[8:3]b,1,Cf,,
{4}
Ch[2:1]/1h[2:1],,,,Ch[2:1]/3h[2:1],,,,
Ch[2:1]/5h[2:1],,,,Ch[2:1]/7h[2:1],,,,
1h[2:1],,,,3h[2:1],,,,
5h[2:1],,,,7h[2:1],,,,
1h[2:1]/2,2,2,2,3h[2:1]/4,4,4,4,
5h[2:1]/6,,,,
{16}
7h[16:15]/8,,,8,,,8,,8,8,,,,,,,1b-5[16:1]b,,,,
{4}
,5b-1[16:1]b,,,8<1[2:1]b/1>8[2:1]b,1b/8b,A5/A4,,1/8,1h[8:1]/8h[4:1],{8},1,
{4}
8,7,6,5<8[8:1]*>2[8:1],5,
{8}
1/2,2,2/3,3,3/4,4,4/5,5,5h[4:1]/6h[4:1],,,{16}7,7,8,,1,2,,,3h[8:7],,
B4,,,,B5/B4,,,,B5,,,,B6/B5,,,,3/B6,,,,3/B6/B7,,,,3/B7,3,,,3/B7/B8,,,,
{4}
{4}
5b<8[16:1]b,5b>2[16:1]b,5b,,8<1[2:1]b/1>8[2:1]b,
1/8,A5/A4,,1/8,1h[8:1]/8h[4:1],
{16}
,,1,,8,,7,,1,,,8,,,7b-4[32:3]b,,7b,,,,
{8}
,,8/7,7,7/6,6,6/5,5,5/4,4,4h[4:1]/3h[4:1],,,{16}2,2,1,,8,7,,,6h[8:7],,
B5,,,,B4/B5,,,,B4,,,,B3/B4,,,,6/B3,,,,6/B3/B2,,,,6/B2,6,,,6/B2/B1,,,,
{8}
7<4[8:1],7,7>2[8:1],7,7,,
2>5[8:1],,2<7[8:1],2,2,,
{4}
7qq4b[4:1]/3qq8b[4:1],7/3,,
4qq1b[4:1]/8qq5b[4:1],4/8,,
1pp4[8:3]b/8qq5[8:3]b,1/8,Cf,,
&inote_5=(98){4}
1/8h[8:3],1,2,2,
2/7h[8:3],2,3,3,
3/6h[8:3],3,4,4,
4/5h[8:3],4,4,4b,
{4}
8<5[4:1],8,8-4[4:1],8,
1-5[4:1],1,1>4[4:1],1,
5,B4/B5,4/E5,B4/B5,5/E5,B4/B5,4/E5,B4/B5,
8qq4[4:1],8,1-5[4:1],1,
1pp5[4:1],1,8-4[4:1],8,
5,B4/B5,4/E5,B4/B5,5/E5,B4/B5,4/E5,B4/B5,
{8}
8<1[2:1],,C,,8,8h[8:1],,,4>5[2:1],,C,,4,4,C,,
2>1[2:1],,C,,,,C,,6<5[2:1],,C,,,,Ch[16:1],E1f,
8>7[2:1],,C,,8,8h[8:1],,,4<3[2:1],,C,,4,4,C,,
1<2[2:1],,C,,,,C,,5>6[2:1],,C,,,,C,,
{8}
6h[8:5],,,3h[8:3],,,Chf[4:1],,
{32}
1h[16:3],,,,,,2h[16:5],,,,,,,,3h[4:1],,,,,,,,,,4b-1[8:1]b,,,,,,,,
7h[16:3],,,,,,6h[16:5],,,,,,,,5h[4:1],,,,,,,,,,4b-8[8:1]b,,,,,,,,
3h[16:3],,,,,,4h[16:5],,,,,,,,5h[4:1],,,,,,,,,,,,,,6,,,,
7,,,,,8,,,,,,B8,,,,Cf,,,,,,,,,,,,,,,,,
{8}
2,2,3,3,4,4,5-1[8:1]b,5h[4:1],,
,7,1h[4:1],,,,1b-5[8:1],,
1,1,2,2,3,3,4h[2:1],5h[8:3],,,,,4b/5b,,,
{4}
7<4[8:1],7>2[8:1],6/7,
2>5[8:1],2<7[8:1],2-6[8:1],
7pp4[4:1],7,3h[8:1],
4qq1[4:1],4,8h[8:1],
1pp5[8:3]b,1,Cf,,
{4}
Ch[2:1]/1h[2:1],,,,Ch[2:1]/3h[2:1],,,,
Ch[2:1]/5h[2:1],,,,Ch[2:1]/7h[2:1],,,,
1h[2:1],8-4[4:1],,,3h[2:1],4-8[4:1],,,
5h[2:1],8-4[4:1],,,7h[2:1],4-8[4:1],,,
1h[2:1]/2,2,2,2,3h[2:1]/4,4,4,4,
5h[2:1]/6,,,,
{16}
7h[16:15]/8,,,8,,,8,,8,8,,,,,,,{4}1b-6b[8:1]*pp4b[3:1],
{4}
,5b-2b[8:1]*pp8b[3:1],,,8b<1[2:1]/1b>8[2:1],1b/8b,A5/A4,,1/8,1h[8:1]/8h[4:1],{8},1,
{8}
8,,7,6,6,5,5<8[8:1]*>2[8:1],,5bx,,
{8}
1/2,2,2/3,3,3/4,4,4/5,5,5h[4:1]/6h[4:1],,,{16}7,7,8,,1,2,,,3h[8:7],,
B4,,,,B5/B4,,,,B5,,,,B6/B5,,,,3/B6,,,,3/B6/B7,,,,3/B7,3,,,3/B7/B8,,,,
{4}
{4}
5b<8[8:1]b,5b>2[8:1]b,5bw1[8:1]b,,8<1[2:1]/1>8[2:1],
1/8,A5/A4,,1/8,1h[8:1]/8h[4:1],
{16}
,,1,,8,,7,,1,,,8,,,7b-4[32:3]b,,7b,,,,
{8}
,,8/7,7,7/6,6,6/5,5,5/4,4,4h[4:1]/3h[4:1],,,{16}2,2,1,,8,7,,,6h[8:7],,
B5,,,,B4/B5,,,,B4,,,,B3/B4,,,,6/B3,,,,6/B3/B2,,,,6/B2,6,,,6/B2/B1,,,,
{8}
7<4[8:1],7,7>2[8:1],7,7-3[8:1],,
2>5[8:1],,2<7[8:1],2,2,,
{4}
7qq4b[4:1]/3qq8b[4:1],7/3,,
4qq1b[4:1]/8qq5b[4:1],4/8,,
1pp4[8:3]b/8qq5[8:3]b,1/8,Cf,,
