&title=Tachyon
&artist=Zekk
&first=2.2
&des_1=SetDesigner
&des_2=SetDesigner
&des_3=SetDesigner
&des_4=SetDesigner
&des_5=Nanashi
&lv_5=14
&des_6=SetDesigner
&des_7=SetDesigner
&des=SetDesigner
&clock_count=4
&inote_5=(165)
{8}3h[4:1],,B5`E5,3,7h[4:1],,E5/B5,7,2h[4:1],,E5`B4,2,6h[4:1],,B4/E5,6,7xh[4:1]/3x,,5,2h[4:1]/6,,4-7[8:1],,4-1[8:1],,4/8-5[8:1],,8-3[8:1]/2,,8/6h[8:1],,1/6,7x<4[4:1],,4>1[4:1],,1x<6[4:1],,6>3[4:1],,3x>7[4:1],,7V52[4:1],,2xV47[4:1],,8,,1x,1-5[8:1],,1/8,,7,7xv4[8:1]/2x-5[8:1],,2b<2[4:3]/7,,,,,,,,
{8}5x<4[1:1],,,,,,,,5<4[1:1]b,,,,,,,,5x<4[1:1],,,,,,,,Ch[4:3],,,,,,,,
2xh[4:1]/6xh[8:1],,7h[8:1],3h[4:1],5x,,2/6h[8:1],3h[8:1],5x,
{16}7,4,6h[8:1],,5,,7xh[8:1]/3x,,4,,6/3,,5h[8:1],,3x,,1,,6x/2x,,3,5,8x,1h[8:1],,7,4x,5,2h[8:1],,
{8}7xv2q6-4[2:1],,1xh[4:1],,,1h[8:1],,2,4xh[16:1]/6xh[8:1],5,3,8-4[8:1]/2,4x-7[8:1],,,,3xh[16:1]/5xh[8:1],4,6x,1-5[8:1],5x-2[8:1],,,,7xh[8:1]/3xh[16:1],5,4x,6-1[8:1],1x-4-7[4:1],,,,2xh[16:1],4h[8:1]/3,1x,5h[8:1]/3,4x,2/6h[16:1],3x<5[8:1],,3b/7,,6x,4-1[8:1]/7,1x-5[8:1],,,,7xh[8:1]/3xh[16:1],4,6x,5-8[8:1]/2,8x-4[8:1],,,,
{8}2xh[8:1]/6xh[16:1],4,5x-1-6[4:1],3,5x/2x,,,2xh[4:1],,,
{24}4x/2x,5,6,,2x,3,4h[4:1],,,,8x,7,6h[8:1],,,1,,,3x/7x,,,
{8},2-5[8:1],5qq6[8:3],2x,,,,8b,,2xh[8:1],
{16}4,3,7xh[8:1]/5x,,,6,3x,,5,4,2h[8:1]/6x,,4,3,6x,,7h[8:1]/3,,,5,6,,6xh[8:1]/2,,4h[16:1],7h[16:1],2x,5,3,6x,1xh[8:1],,6x,,3x,5,4,,6x/2xh[4:1],,,,Cf,,,,7-4[8:1],,4pp3[8:3],,
{8}7x,,1b,,
{16}2xh[8:1],,4,5,3x,,1,,3x/8x-4[8:1],,2,,8x/3x,,1,,2x-6[8:1],,8,,7x/2x,,1,,7x-4[8:1]/2x,,4pp3[8:3],,7x,,
{2}1bh[4:3],
{8},,,6x/2x,3,
{24}8x/2bh[4:1],7x,6,5,,,,,,2,,,8bx/3x,4x,5,6,,,2h[4:1],,,7b,6x,5,4,,,2,,,1/6h[8:1],,,2,,,7bh[4:1]/3b,4,5,6,,,1b,,,6bx/2bx,,,
{8}8bqq1[2:1]/4bqq5[2:1],,,,,,,3h[2:1]/7h[8:3],,,,6,5x-8[8:1]/1x-4[8:1],,,,
{24}7bh[4:1]/1x,2,3,4,,,,,,7,,,6/1b,5,4,3,,,7h[4:1],,,3b,4,5,6,,,7,,,8/3h[8:1],,,7,,,2bh[4:1]/6,5,4,3,,,8b,,,
{8}3bx/7bx,1bpp8[2:1]/5bpp4[2:1],,,,,,,2h[4:1]/6,,4,6h[8:1],5,3h[8:1],5,7h[8:1],4,
{1}2b<2V86-4-2-7-4-1-6-3-8-5-2[1:5]b/6b,,,,
{4}7h[2:1],,,,6h[2:1],,,,1V38[2:1]/5pp4[4:3],,,,,3z7[8:3],,,6xh[4:1],
{8}4x,2h[4:1]/5,,6x,3xh[8:1],6x,7xh[4:1]/3xh[8:1],,6x,5/1,2x,E4h[8:1]/A3h[4:1]f/E6h[4:1]/A6h[8:1]f,,,4x/7xh[4:1],,3,6/1h[4:1],,5x,2x,6xh[4:1]/4xh[8:1],,3,2/6,7,3x/8x,E7h[8:1]f/A7h[4:1]/A2h[8:1]/E3h[4:1]f,,,6xh[8:1]/2xh[4:1],,4x,3xh[4:1],,4x,3/5x,3x,3/6x,3x,7x/3xh[8:1],4,6xh[8:1]/3x,5,3x/6x,4,3x/6xh[8:1],1,3xh[8:1]/6x,8,
{16}6xh[16:1],7,4xh[16:1],3,5xh[16:1],6,3x,2,1x/7x,,,,8qq5[8:3]*pp3[8:3],,,,8b,,,,,,,,
{16}2bxh[8:1]/6bx,,4,5,3xh[4:1]/6xh[8:1],,,,5,,4,2h[16:5],6x,,5h[8:1],,,,3/6,7h[16:1],5x,,6h[8:1],,4,,5,3,8x-5[8:1]/4x-1[8:1],,,,4b/8b,,,,3xh[8:1]/7xh[4:1],,,,2x,,6,4,2x,6,5,7,1xh[8:1],,,,5x/1h[8:1],,,,3x,4,2,,
{8}8xv5[8:1]/4x-1[8:1],,4b/8b,,
{16}2xh[16:1],5,3,,6xh[8:1]/1,,4,5,3x,,5h[8:1]/2h[4:1],,,,5h[8:1],,2xh[8:1],,,,6x-3[8:1]/1-4[8:1],,7/2,,1x/6x,,,,
{16}3x/7x,,4,6,5x,3,4,2,5x,1,7,5,6x,2,6,4,5x,3,8,2,6x,1,7,3,4x,2,8,6,2x,4,5,3,7bx-1-5-7-4[8:5]b,,,,,,,,3x-8[8:1],,,,3/E8/E4`Cf,,,,
{16}2b/6b,,3,5,4x,7/2,5,3,7x/1xh[8:1],,6,,8xh[8:1]/2x,,3,,1x,1,7,5,6xh[8:1],,4,,6x/2x,,4,6,3x,,1,,
{16}3b/7b,,6,4,5x,2/7,4,6,8xh[8:1]/2x,,3,,1xh[8:1]/7x,,6,,2x,3,4,5,6/2x,7,8,1,2/6x,3,4,5,6x-3[8:1]/2x-7[8:1],,,,6b/2b,,,,
{16}3x,5,4,7/2,5x,3,7/1h[8:1],,6x,,8h[8:1]/2,,3x,,1,1,7x,5,6h[8:1],,4x,5h[8:1],,,4x/7x,,6h[8:1],,4x,6,5,1,8x,3,7,5,2b/8b,,,,3b/5b,,1bh[16:3]/7bh[16:3],,,,,3,2x/4x,,6,5x/7x,,2x,1/3,,7x,8/6,,1x,
{4}2bh[2:1]/6bh[2:1],,,
{24}
{8}1xs5[8:1]/7x-3[8:1]b,,1b/7b,,2x/6x,
{16}5,3,8x-3[8:1],,4,4,8x-5[8:1],,2,,5x/8-2[8:1],,3,,8<6[8:1]/5x,,4,,8xp4[8:1]*v3[8:1],,2,,8x,,,,2x/6,3,4,5,6x,7,8,1/6,5x,4,3,2,1x-4[8:1]/5x-8[8:1],,,,5b/1b/E1/E5`Cf,,,,E3/D3/E7/D7f,,1/5,,E4f/E8,,2-6[8:1]/6,,8x/3x,,2/7,,8x-4[8:1],,7/3,,8x/2x,,3,,1xh[8:1]/6x,,7,7h[16:1],2x,,1h[8:1]/8,,7x,6,3x,2,6x,5,2x,1,5x,6,3x,4,7x,6,1x,2,7xh[4:1],,4,,3xh[4:1],,5,,6bh[8:1],,4,,2x,,4,,
{24}8x/2bh[4:1],7x,6,5,,,,,,2,,,8bx/3x,4x,5,6,,,2h[4:1],,,7b,6x,5,4,,,2,,,1/6h[8:1],,,2,,,7bh[4:1]/3b,4,5,6,,,1b,,,6bx/2bx,,,
{8}8bqq1[2:1]`4bqq5[2:1]b,,,,,,,3h[2:1]/7h[8:3],,,,6,5x-8[8:1]/1x-4[8:1],,,,
{24}7bh[4:1]/1,2,3,4,,,,,,7,,,6/1b,5,4,3,,,7h[4:1],,,3b,4,5,6,,,7,,,8/3h[8:1],,,7,,,2bh[4:1]/6,5,4,3,,,8b,,,
{8}3bx/7bx,1bpp8[2:1]b`5bpp4[2:1],,,,,,,
{8}5h[8:3]/1h[4:1],,,2h[4:1],6h[4:1],,3h[4:1],7h[4:1],,4b,,,,,,,
{8}
B1,E3h[8:3],,,B5,D6h[4:1],,A2,A1h[4:1],,E8,A7h[8:14]f,,,,,,,,,,Ch[2:1],,,,,,,,,,,E7,E6h[8:3],,,E2,D3h[4:1],,B5,A6h[4:1],,E3,D4h[6:9],,,,,,,,,,Ch[8:3]f,
E
