&title=いざ、参ります
&artist=U-ske feat. 棗いつき
&first=0.03
&lv_5=13+
&des_5=Jimmit_x
&inote_5=
(188){4},{1},{4},,{8},{16}6,
5>6[16:9],
{1}7h[4:3],
{4}7/5s1[2:1],{8},,,,5,6,
{1}3h[4:3]/7>5[2:1],
{2}1/8p6[16:5],{8}3,4-8[8:1],,4b/3b,
,2,2/4,2,2/1,2,2/5,2,
6,7,8-2[8:1],8-6[8:1],{2}8z4[8:1],
{8}7,7,7/5,7,7/8,7,7/2,7,
5/6,{16}4,5,{8}3,2/4,{16}8,1,7,8,{8}6,4,
7/3,7,7/6,7,7/1,7,7/4,7,
3,2,1-7[8:1],1-3[16:1],{2}1s5[8:1],
{8}2,2,2/4,2,2/1,2,2/6,2,
{4}3/4<7[8:1],{8}2,1-5[8:1],,8,{4}7-4[8:1]*-2[8:1],
7b,{8}6,6,{16}4,5,{8}3,{4}6/2-6[8:1],
2/1,{8}7,8>3[8:1],,4,{4}4-8[8:1],
4/5,{8}6,6,{16}3,4,{8}2,{4}8/1h[4:1],
{8}7,{16}E7,E6,{8}E5,1,2/6,{16}E3,E4,{8}E5,7,
{4}8-5[8:1]/4-1[8:1],8/4,{16}3,6,{8}4,{4}3/7-3[8:1],
7/8,{8}2,1-6[8:1],,5,{4}5-1[8:1],
5/4,{8}3,3,{16}8,1,{8}7,{4}6/2h[4:1],
{8}7,{16}1,8,{8}2,3/7,{16}4,5,6,7,8,1,2,3,
{2}4b/8bp4v1[4:3],{4}3,3,
{2}2pp5[4:3],{4}6,7,
{2}8-4V62[4:3],{4}1,1,
{2}8pp4[4:3],{4}5,6,
7h[4:1],E5,5/3h[4:1],E7,
5/6h[4:1],E3,4/3h[4:1],E1,
{8}2/6,2,5/3,5,6/4,4,7/3,7,
{16}5,6,3,4,2,5,1,6,8,7,{24}1,2,3,4,5,6,7,8,1,
{1}2bpp8[2:1]/6bpp4b[2:1],
{16}4,5,4,5,3,6,3,6,2,7,2,7,{4}1-5[8:1],
1b/7b-4[8:1],7/3-8[8:1],3/5-1[8:1],{8}5/1,2h[4:1],
,4,3/5,2,6/4,7,8/1,2,
3-8[8:1]/4-8[8:1],5,{4}3b/4b,5-1[8:1],{8}5/6,7h[4:1],
,8,1,2,{4}3/4v1[8:1]*v7[8:1],4b,
{8}2/6,6,5/3,3,6/4,6,3/7,2,
1/8,7,6/2,3,{4}4/5qq1[8:3],{8}6,7,
{4}8-6[8:1],{8}8,1,4/2,5,6,7h[4:1]/4h[4:1],
{16},,,,6,5,7,4,6,5,7,4,{8}8-4[8:1],1,
{4}8b/2b-5[8:1],2/6-1[8:1],6/4-8[8:1],{8}4/8,7h[4:1],
,5,6/4,7,3/5,2,1/8,7,
6-2[8:1]/2-5[8:1],1,{4}6b/2b,8-4[8:1],{8}8/7,6h[4:1],
,3V51[4:1],6,7,{4}8-4[8:1]*-6[8:1],C,
{8}3<6[8:1],3,7-3[8:1],7,1<6[8:1],1,5,5,
4,3,2/6,7,{4}8/1,{8}6-4[8:1]/3-8b[8:1],7,
{4}6/3,{8}6x-1[8:1]/2xv5b[8:1],1,{4}6/2,{8}3>4[2:1],4,
{4}Cf/B6/B5,,,8w4[8:1],
B8/E1/A8/E8,{8}2/7,{16}1,8,{8}2,6-2b[8:1],,4/6pp4[8:5],
,4,,,{4}E2,B3,
{8}3/7,{16}8,1,{8}7,3-7b[8:1],,5/3qq5[8:5],,5,
,,{4}7,6-1b[8:1],{8}6,4,
3x/7x,{16}B1,B2,{8}5x/B3,{16}B5,B6,{8}1x/B7,{16}B4,B3,{8}8x/B2,{16}B8,B7,
{8}4x/B6,{16}E4,E3,E2,E1,E8,E7,E6,E5,E4,E3,8x/E2,7x,6x,5x,
{4}4bx,{16}3,4,2,4,{4}1bh[4:1]/B7/B6,{16}6,5,7,5,
{4}8bh[4:1]/B2/B3,{16}4,6,3,6,{24}2x,1,8,7,6,5,{8}4x/8x-4b[8:1],2,
{64}8b/1V35-7>4[2:3],Cf,{4},,,{16},,,{32},{2}B8,
B4,
{4}7<2q8[4:3],1,1,1,
{8}2,2,5,5,{16}3,4,2,5,{8}1>4b[8:1]*<6b[8:1],7/2,
{1}1-7-3-5[4:3],
{2}Ch[2:1],B7/B6/B2/B3,
3/6v5-3[4:3],2,
1v7p3[4:3],5,
{4}8h[4:1],E6h[4:1],1h[4:1],E4h[4:1],
{8},2,1,8,{4}5/7-3b[8:1],{64}7/3,Cf,,,,,,,,,,,,,,,{8}2<7[8:1],
2,6-1[8:1],6,5-2[8:1],5,7,7,
1/8,2,3/7,6,{4}5/4V61[4:1],{8}3,2,
{4}2-6[8:1],{8}2/1,8,7/5,4,3,5h[4:1]/2h[4:1],
{16},,,,3,4,2,5,3,4,2,5,{32}1,8,7,6,5,4,3,2,
{4}1bp5[8:1]/7b<5[8:1],7q3[8:1]/1>3[8:1],7/1q5[8:1],{8}8,8h[4:1],
,5,6/4,7,3/5,2,8/1,7,
5-1[8:1]/6-1[8:1],4,{4}6b/5b,4-8[8:1],{8}4/6,7h[4:1],
,8,1,2,{4}3/4v1[8:1]*v7[8:1],4b,
{8}6>3[8:1],6,2-6[8:1],2,8>3[8:1],8,4,4,
5,6,7/3,2,{4}1/8,{8}2-8[8:1]/7-4b[8:1],8,
{4}2/7,{8}2x-5[8:1]/5x-1b[8:1],1,{4}2/5,{8}4x>1[8:1]/8x<5[8:1],5/1,
{4}4b/8b,{8}3/7,3/7,{16}2,1,3,8,{8}2,1/7,
2b/6b,{16}3,4,{8}1,8/2,7b/3b,{16}6,5,{8}8,1/7,
2b/6b,{16}7,4,5,3,6,1,{4}5w1b[8:1],B5f/E6/E5/A5,
E
