&title=Watch me!
&artist=YOASOBI
&first=0
&des=Cridist_Tist 关注B站Cridist_Tist谢谢喵
&lv_5=14
&inote_5=(128){16},,,,,,,,,,{8}5h[8:1],4h[8:1],3,
{4}4>4[4:7],{8}4,{16}B7,B6,{8}B5,4,3,2,
3,2,3,1,,8,7,6,
{4}5,5<5[2:3],{8}5,B3,B4,B5,
6,7,6,8,,1,2,3,
{4}4b,{8}C,4,6,7/5x,6/C,3,
7/1x,2,3/C,4/2h[4:1],,3x,5/C,4,
1x/7,6,4x/C,5,1x,3x/5h[8:1],3<6[0.2344##0.2344],3,
,E1,B7/B2,B4/B5,3h[8:1],{16}4h[8:1],6,{8}5h[8:1],6h[8:1],
E2,E7/E3,E8/E4,E5/E1,6h[8:1],{16}3h[8:1],4,{8}5h[8:1],4h[8:1],
E8,E3/E7,E2/E6,E5/E1,6h[8:1],{16}5h[8:1],3,{8}4h[8:1],3h[8:1],
6,{16}8,6,7,3,{8}1,2,2<7[0.2344##0.2344],{4}2/4h[8:1],
{8},E1,B2/B7,B5/B4,6h[8:1],{16}5h[8:1],3,{8}4h[8:1],3h[8:1],
E8,E3/E7,E2/E6,E5/E1,3h[8:1],{16}6h[8:1],5,{8}4h[8:1],5h[8:1],
E2,E7/E3,E8/E4,E5/E1,3h[8:1],{16}4h[8:1],6,{8}5h[8:1],6,
2/1,1/3,3/8,5/4,6/3,7>2[0.2344##0.2344],{4}7/Cfh[8:1],
{8},5/8h[8:1],4,{16}6h[8:1],3,,,{8}2,5,4,
{16},,5,4,6,3,,7/6q2[0.5859##0.2344],,,{8}2>5[8:1],8,7,
{16},,3,5/2V86[16:3],{8}4,{16}5,2,,,{8}4,,5/4,
6h[8:1],{16}3,5,,2,,4h[16:5],,,{8}6,2,3/6,
,5,4q6[4:1],{16}5,3/6<2[0.5859##0.2344],{8}4,3,4,5,
,4,5p3[4:1],{16}4,6/3>7[0.5859##0.2344],{8}5,6,5,4,
5/3,4/2,{16}3/6h[16:1],5,,2,,,{8}4/8-5[8:1],3,8,
{16}2,1/3h[16:5],,5,,4,{8}6,{16}7,4,5,2,7,8,{8}1,
6/4,5/3,C,B7/B6,{64}2bx,E3,{32}B3,{64},,,,,,,,7bx,E7,{32}B6,{64},,,,,,,,1bx,E1,{32}B8,,,{16}4,
3/1,2,1,{8}8/6,7/5,1/B8,{16}3/B5,2/E7,,,{8}3/B4,
{16}7,5,{8}6,{16}5/7,8/6,,,3,2,3,4h[16:1],3,2/3,,,4,
5,3,4,6,5,{8}3/4,C,2/7,4b/5b,{16}6h[16:1],5,
{8}2h[8:1],7h[8:1],3h[8:1],6h[8:1],2h[8:1],5h[16:1],4,5/4,
3,6,2,7,{4}1/8,{16}4q6[8:7],6,3,5,
{8}4/7,2,3,1,7,5,8,2,
5b/1b,,,5h[8:1],3h[8:1],7h[8:1],4h[8:1],5,
6x/B1,5,4x/B2,{16}5,4,{8}3x/B8,{16}6,B7,{8}5x,{16}B6,2,
1x,8,7,6,5x/B7,4,3/B6,4,5x/B3,6,7/B2,8,1x/B7,2,3/E7,4,
{4}1/5x,7/3x,{8}4x/B1,{16}3,B2,{8}4x,5/B4,
{16}6x,3,5,4,,,{8}7/B6,2/B1,3/B4,6/B8,4/B2,
5x/6h[8:1],7,4x/3h[8:1],2,5x/7h[8:1],4h[8:1],6xh[8:1],8,
,4/2h[8:1],6xh[8:1],4h[8:1],3x,7/1,5x,3,
{4}2x/8q5[4:1],5V37[16:3],{16}7p2[0.3516##0.3516],,,4h[16:3],,,,,,,,,,,{8}3/8,
6/1,2/7,4,5,
{4}4x/6,5/3,{16}6x/A4,,,A6/5qq5[0.3516##0.3516],,,{8}A8/5xpp5[0.3516##0.3516],
{16},,,,,,4,5,4,6,,2,,4,{8}6,
{4}5x/2,7/4,{16}3x/A5,,,A3/4pp4[0.3516##0.3516],,,{8}A1/4xqq4[0.3516##0.3516],
,,,6xh[8:1],5h[8:1],4xh[8:1],3h[8:1],5x,
6/5h[8:1],E7,3/4h[8:1],E3,7x/3h[8:7],6,5,7x,
,1,8,7x,5x/2,4h[8:1],6h[8:1],3x,
{4}8/2-6[4:1],2/6>3[4:1],{16}3v8[8:1],,,6,,,{8}1,
7x/2,2x,{16},3x,{8}4x/3,8/6x,1,7/3x,5/4,
{16}5x,4,7,2,3x,6/4,,5/3,1x,8/6v1[8:1],,4,,2h[16:1]/A6,,,{4}3qq8[8:13],
5/3,{16}E7,,,E6,,,{8}E5,
,6h[8:1],,4,{16}B6,,,B5,,,{8}B4,
{4}2h[4:1],7h[4:1],{16}3h[16:3],,,6,,,{8}5h[8:1]/4h[8:1],
,2/1V35[8:1],2,2,,5v8[8:1]/4v1[8:1],6/2,4/5,
,7,{16}6/1h[16:1],5,,3h[16:3],,,{8}2,6,3,
{16}1,8,,2-6[0.5859##0.1172],,7,8,7,{8}2,8,5h[8:1],3,
,2,{16}3/1h[16:1],4,,6/8,,,{8}5,3/6h[8:1],4,
7,{16}6/8h[16:1],5,,1/3,,,{8}2,4,5,6,
,5,{16}3/E1,4/B2,,6h[16:1],{8}7,5,3,4,
,4,{16}6/E1,5/B7,,3h[16:1],{8}2,4,6/3,{16}7,6,
{8}5h[8:3],,,4h[8:1],3h[8:1],6h[4:1],,1,
8bx/5bx,,,,,5xh[8:1],6xh[8:1],{16}7xh[16:1],8x,
{8}8x>8[8:15],C,{4}8,{8}8,8xh[16:1],1,2,
1x,{16}3,1x,{8}2,1x,,5xh[8:1],,6,
{16}5xh[4:1],,,1,{8}2,5,3,{16}3x,2,{8}4,2,
5x,7x/5v2[8:1],4/6,5/3,A1f,8x,7,6,
{4}7x/5h[4:1],{8}7xh[8:1],6h[8:1],3x,{16}4h[16:1],2,{8}5x/3h[8:1],4h[8:1],
8xh[4:1],6,4x,1bx/5,B2f,3/5h[8:1],4xh[8:1],2,
B7f,6/4h[8:1],5xh[8:1],6,{16}3x/1h[16:1],4,,6,{8}E1,4,
{4}7x/2x,5bx/4bx,{8}Cf,6/3h[8:1],5h[8:1],4,
3x/B8,4,5x/B7,{16}4,5,{8}6x/B1,{16}3,B2,{8}4x,{16}B3,7,
8x,1,2,3,4x,5,6/B3,5,4x/B6,3,2/B7,1,8x/B2,7,6/E3,5,
{4}8/4x,2/6x,{8}4x/B7,{16}5,E7,{8}4x,3/B4,
{16}5x,3,4,2,,,{8}4/7h[8:1],6h[8:1],3h[8:1],2h[8:1],4,
7/5,4/2,7/5,4/2,7/6h[8:1],5,2/3h[8:1],4,
,6/8,8/2xv5[8:1],7/1,8/2x,B1,B7,E6/E5,
{4}7/1p4[4:1],4V62[16:3],{16}2q7[0.3516##0.3516],,,5h[16:3],,,,,,,,,,,{8}1/6,
3/8,2/7,5,4,
{4}5x/7,5/3,{16}6x/A4,,,A6/5qq5[0.3516##0.3516],,,{8}A8/5xpp5[0.3516##0.3516],
,,,6/1h[8:1],5h[8:1],2h[8:1],4h[8:1],3,
{4}4x/2,4/6,{16}3x/A5,,,A3/4pp4[0.3516##0.3516],,,{8}A1/4xqq4[0.3516##0.3516],
,,,3/5h[8:1],2h[8:1],7h[8:1],3h[8:1],6,
3/4h[8:1],5,6/5h[8:1],4,2/6h[4:3],3,4,2,
,8,1,2,3/7,4h[8:1],2h[8:1],6,
{4}1x/5,3x/7,{16}3/5,,,4xq8[0.3516##0.3516]/6xp2[0.3516##0.3516],,,{8}6/4,
,,,5h[8:1],4h[8:1],7h[8:1],2h[8:1],6,
{4}7x/3,5x/1,{16}6/4,,,5xp1[0.3516##0.3516]/3xq7[0.3516##0.3516],,,{8}3/5,
,8h[8:1],6h[8:1],1h[8:1],3h[8:1],{16}6,5/2h[16:3],,,{8}6<6[8:11],
,6,4,4,3,4,5,4,
2,1,3,2,4,2-5[16:1]/6-1[16:1],,2/6,
{16},,4x/6,7x,5x/3,2x,,8b/1b,,,{8}7/2,3/6,5x/4x,
{4}B7/E7/B6,B2/E3/B3,{16}7/3,,,5>2[0.3516##0.3516]*<8[0.3516##0.3516],,,{8}A5,
,7,3,5,{16}4,6,4,7,,,{8}2/7,
{4}B2/E3/B3,B7/E7/B6,{16}1/7,,,4qq4[0.3516##0.3516]*pp4[0.3516##0.3516],,,{8}4,
D3/D6,{16}6,3,5,2,,5,,5,{8}4,{4}Cf,
B8/B7/E8,B4/B3/E4,{16}2/6,,,7>2[0.3516##0.3516]/3>8[0.3516##0.3516],,,{8}7/3,
,7x,6,5,{16}6,3,6,2,,,{8}5,
{4}3/7h,5h/3>1-5[8:3],{16}3b/8-4[0.3516##0.3516],,,8/A1,,,{8}E5,
{16}2h[16:1],7,,3,,4,,6,,7,{8}5,{4}Cf,
E
