&title=シカ色デイズ
&artist=潘めぐみ; 藤田咲; 田辺留依; 和泉風花
&first=0
&des=B(@A@)D
&clock_count=4
&lv_5=13+
&inote_5=(183){1},
{4},,,C,
{8}8v1[12:1],7v6[12:1],,,2v3[12:1],1v8[12:1],,,
{4}E8/E7/B7/B6/B5/B4/B3/B2/E3/E2,C,3/6-3[8:1],,
{8}8v1[12:1],7v6[12:1],,,2v3[12:1],1v8[12:1],,,
{4}E8/E7/B7/B6/B5/B4/B3/B2/E3/E2,C,3-1[8:1]/6,,
{8}8v1[12:1],7v6[12:1],,,2v3[12:1],1v8[12:1],,,
{4}E8/E7/B7/B6/B5/B4/B3/B2/E3/E2,C,3-6[8:1]/6,,
{8}8v1[12:1],7v6[12:1],,,2v3[12:1],1v8[12:1],,,
{4}E8/E7/B7/B6/B5/B4/B3/B2/E3/E2,C,3qq1[8:1]/6<1[8:1],,
{8}2,,3/4,,1,8-5>3b[8:3],7,6h[4:1],
,,,2h[2:1],4,5,6,7,
8/1q5[8:1],,1/7-2>4[4:1],,2b,,,1h[4:1],
{16}5,6,7h[8:3],,8,,6,,5,,4,,3,,2,,
{8}1qq8>4[2:1]/8,,1b/7,,5,6,7,8h[4:1],
{24},,,C,,,A7,E8,E1,A1,,,3,,,4,,,5,,,6,,,
{8}7/8>2[8:1],,8/6>3b[4:1],,3b,,,2h[4:1],
{16}1,8,7h[4:1],,3,,4,,6,,5,,8,,2,,
{8}6h[4:1],,B4/E4,B1/E2,7h[4:1],,E3/D3,,
1h[4:1],,B2/B3,B6/B7,2h[4:1],,C,,
3h[4:1],,5x-7[8:1],5x,5x-1[8:1]/2h[4:1],,,,
4h[4:1],,8,8,B4,B6,B2,B8,
3h[4:1],,B5/E6,B8/E8,Ch[4:1],,D7/E7,,
3,5,1,7,B4/E4,B6/E6,B2/E2,B8/E8,
3h[4:1],,1p5[8:3],8q4[4:1],,,,,
4x<7b[8:1],4x,4xq1b[8:3],,4hb[4:1],,,,
4,4h[4:1],7,6,5,5h[4:1],3,2,
1-4[8:1],4<6[8:1],,8,8-5[8:1]*V26[4:1],,,,
4xh[8:1],,4x<8[16:3]/8x>4[16:3],,4xv2b[8:1]/8xv6b[8:1],,,,
3-1[8:1]/7-1[8:1],3/7,,,6,2,1/8,,
7,7<4[8:1],8,1,2-6[8:1],2h[4:1],,,
3,3>8[8:1],4,5,6-2[8:1],6h[4:1],,,
3>1[8:1],3,5q1[8:1],5,4p8[8:1],4,6<8[8:1],6,
{4}5-3[8:1],5-8[4:1]*p1[4:1],5b,,
3,2/B3/E4,2/B6/E6,7,
8/B3/E4,8/B6/E6,8h[4:1],B3/E4,
7h[4:3]/B6/E6,4h[2:1],,,
{8}A7/E7/B6/Cf/A2/E3/B3,,,B2/E3/B3/Cf/B6/B7/E7,,,Chf[4:1],,
,5,5>1[8:3],,1,8,7,6h[8:3],
,8,8,,5/7,5/7,,6h[8:5],
1b,,2b,,3b-8[8:1]*v6[8:1],,3b,,
1-5[8:1],,8-6[8:1],,1-3[8:1],1,8<4[4:1],8h[4:1],
,,,7,3/6,2/5,1,8,
7<5-8[4:1],7,,1,2>4-1[4:1],2,,7>5[8:3],
,5,5<1[4:1],,1q6[4:1]*>6[4:1],,,,
,,4-2[8:1]/6-8[8:1],,4/6,,1>4[8:1],8,
1/7h[8:3],,5,5p1[8:1],,6,,5xh[8:3],,
2,2h[4:1],,4,5<2[4:1]/3,6/4,7/5x,
,5,5-2[8:1]*>2[8:1],,5b<8[8:1]*-8[8:1],,5b,,
2-6[8:1],,8b,,7p3[8:1],7,1,1-5[8:1],
,8h[4:1],,4,3/7,2/6,5,4-8[8:1]*-8[8:1],
3/5,4,,5-1b[8:1],4/6,5,,2-6[8:1]*-6[8:1],
,7,7-3b[8:1],,1-4[8:1]*-6b[8:1],,1,,
5w1[8:1],,5,,7<4[8:1],,2q6[8:1],,
8p3[8:1],,1,1w5[8:1],,1,,2<1-4<5-8<7[8:5],
,2,8,7,6h[4:1],,,5-8[8:1],
,5,1<2[4:1],,1-5b[8:1],,1b,,
3-8[8:1],3,7-4[8:1],7,1-6[8:1],1,5,5>2[8:1],
,5,1pp4[8:3],,8b,,7,7,
6V84[4:1],6,4<8[4:1],3,2V41[4:1],,2,,
8pp8[4:1],7qq8[4:1],8,7,,2b,2b,,
7-3[8:1],7,8-4[8:1],8,1-5[8:1],1,2-6[8:1],2,
4-8[8:1],4,1s5[4:1]*z5[4:1],,1b,,,3h[4:1],
,7,7-5[8:1],,7/8-4[8:1],,8/1>5[4:1],,
5<1[4:1],,1qq5[16:5]*pp5[16:5],,,,,,
6v8[8:1],6,3v1[8:1],3,5v7[8:1],5,4v2[8:1],4,
8-5[8:1],,8w4[8:1],,8,,,,
1-4[8:1]/3,2,1-6[8:1]/7,8,1-5[8:1]/3,2,1-7[8:1]/7,8,
1-4[8:1]/4,,1w5b[8:1]/6,,1b,,,,
{1},
E
