&title=雪解けに
&artist=初星学園、有村麻央、倉本千奈、月村手毬
&first=0.03
&des=Yuzukeai
&lv_5=12+
&inote_5=(97)
{32},,,,,,,,,,,,,,,,,,,,,,,,,,,,,
2x,3x,4x,5xpp5b[2:1],,,,,,,,7h[4:2],,,,,,,,,,,,,,,,,,,,,,,,6^3[4:1]/3^6[4:1],,,,,,,,,,,,,,,,,,,,,,,,7p4[8:9]/2,,,,,,,,,,,,,,,,,,,,,,,,,,,,,,,,,,,,,,,,1x,,,,,,,,,,,,,,,,5p2[2:1]/6pp1[2:1],,,,,,,,,,,,,,,,
(194)
{16},,,,,,,,,,,,3x,8x,4x,7x,5x/6x,,,,1-5[8:1],,4,,,,6,,2-4[8:1],,6,,,,8,,5-2[8:1],,8,,5,,,,6b-1[8:1],,,,1,,,,2,,2pp4[4:1],,,,4,,,,7,,,,6,,62,,,,17,,1x,,4,,,,35,,,,8-4[8:1],,5,,,,3,,7-5[8:1],,3,,,,1,,4-7[8:1],,1,,4,,,,3b-8[8:1],,,,B5/B6/E6f,,,,,,15,,,,,,37,,4p7[8:3],,,,,,6<2[8:3],,,,,,,,,,,,4,,4h[4:1],,,,E3/B3,,,,,,6,,6h[8:3],,,,,,E8/B7,,,,,,5,,A1/B1,,,,
6,,6h[4:1],,,,E8/B7,,,,,,4,,4h[8:3],,,,,,E3/B3,,,,E1,,,,E7,,,,2,,2,,6,,,,35,,,,7,,7,,3,,,,64,,,,5,,1,,1,,,,28,,,,37,,37,,,,,,1bpp4[4:3]/5bpp8[4:3],,,,,,,,,,,,,,,,,,,,7,,7^4[4:1],,,,E6/B6,,,,,,1,,1h[8:3],,,,,,3x^5[8:1],,,,,,,,E4/B3,,,,
7,,7<3pp6[8:8],,,,E3/B2,,,,,,1,,1,,,,,,2,,,,3,,3,,7,,2,,1b/8b,,,,,,2,,4,,3-5[8:1],,,,3/8-4[8:1],,,,8,,1,,,,26,,3,,8,,8^5[8:1],,,,8,,3p7[8:1],,,,3,,6-2[8:1],,,,6b/Cf/2,,,,,,,,8x,,3,,2,,1,,,,8xqq8b[4:4],,,,,,,,
{16},,,,,,,,2xqq2b[4:4],,,,,,,,
{16},,,,,,,,4xqq4<7b[4:6],,,,,,,,,,,,,,,,E3/B3,,,,,,,,,,,,5q1[2:1],,,,8x,,,,,,,,,,,,,,,,5<4[4:5]/2,,,,,,,,1q5[4:3],,,,,,,,,,,,,,,,,,,,,,E6,E7,E8f,,,,5,,5,,75,,,,6^3b[4:1],,,,4,,,,,,2,,4,,,,4,,3,,5,,4,,6,,,,57,,,,3^6b[4:1],,,,5,,,,,,7,,8,,,,2,,1,,38,,,,56,,47,,,,2,,5q7[8:3]*p3[8:3],,,,5,,,,,,,,,,4p1[8:3]*q7[8:3],,,,4,,,,,,,,,,26,,4b-1[8:1],,,,E4f,,,,5,,1,,1,,26,,26,,37,,37,,Cf/8b,,,,,,7/5^2[8:1],,,,5,,6v1[8:1],,,,
{24}6b/E3f,E4,E5,{16},,8x,,7^4[8:1],,,,7,,8v3[8:1],,,,
{24}8b/E5f,E6,E7,,,,{16}2x,,1-5[8:1],,,,18,,7-5[8:1],,,,8-2[8:1],,,,8-4[8:1],,,,1-5[8:1],,,,1-7[8:1],,,,3b-7[8:1],,,,3,,5b,,,,1,,2/8-4[8:1],,,,28,,,,1-5[8:1],,5,,,,7-3[8:1],,3,,,,,,2-6[8:1],,6,,,,8,,1,,72,,,,18,,,,34,,2,,,,65,,7,,,,4,3,2,1,,,2/4^7[8:1],,,,4,,3v8[8:1],,,,
{24}3b/E7f,E6,E5,,,,{16}1x,,2^5[8:1],,,,2,,1v6[8:1],,,,
{24}1b/E5f,E4,E3,,,,
{16}7,,8-4[8:1],,,,81,,2^4[8:1],,,,1^7[8:1],,,,1q5[8:1],,,,6q2[8:1],,,,6p2b[8:1],,,,,,,,7,,1s5[2:1]/5,,,,,,,,,,6,,,,,,7^6-8v1^2[2:1],,,,,,,,,,3,,,,,,4p1b[77.5#2:1],,
{16},,8,7,6,5,4,3,2b,,,,,,,,,,,,,,,,
{16},,,,,,,,2^5[8:1]/6^1[8:1],,,,2q8[8:1]/6,,,,,,,,,,1,,25,,6,,4,,7h[8:3],,,,,,5,,5^2[8:1],,,,8,,8^5[8:1],,,,1b,,,,1-5[8:1],,4,,,,6,,2-4[8:1],,6,,,,8,,5-1[8:1],,8,,5,,,,6b-2[8:1],,,,2,,,,3,,3pp4[4:1],,,,4p7[4:1],,,,7,,,,6,,6,,,,17,,1x,,4,,,,35,,,,8-4[8:1],,5,,,,3,,7-5[8:1],,3,,,,1,,4-8[8:1],,1,,4,,,,3b,,,,
{24}A5,A4,A3,A2,A1,A8,A7,A6,A5,
{16}A4/3x,,,,,,15,,3>7[8:3]/7,,,,,,5q2[8:3],,,,,,,,,,,,4-8x[1:4]
,
