&title=Scheol
&artist=削除
&first=2.31
&des_5=Ragna
&lv_5=13+
&wholebpm=100-200
&demo_seek=68.9
&demo_len=20
&inote_5=(100){8}27,,,3^6[4:1]/6,45,,7,8,
1,2,6^3[4:1]*^3[4:1]/3,45,,,,,
27,,,3p6[4:1]/6,45,,7,8,
1,2,6q3[4:1]*q3[4:1]/3,45,,,,,
2^7[8:1]/7,2h[4:1]/7,,,6q3[16:3]/3,6h[4:1]/3,,,
5^8[4:1],4,3,2,1^4[4:1],8,7,6,
5q1[4:1],,3,,2q6[4:1],,7,,
8q1[8:5],8h[1024:1],8h[1024:1],8h[1024:1],8h[1024:1],8h[1024:1],8h[1024:1],8h[1024:1],
{2}3V16[2:1],6V41[2:1],
{16}1q5[4:1]*q5[4:1],,,,,,,6,7,8,1,2,3,4,5,6,
{2}7V52[2:1],2V85[2:1],5q7[16:9]*z1[16:9],,
{2}2V48[2:1],8V26[2:1],
{16}6-2[4:1]*-2[4:1],,,,,,,5,6,7,8,1,2,3,4,5,
{2}6V84[2:1],4V62[2:1],2qq7[16:9]*z6[16:9],,
{10000}8q8[2:7],{1}1s5[2:7]*s5[2:7],,,,
(200){8}
7,4,6,4,7,5,6,4,5,3,4,2,8,1,7,2,
6,5,7,4,8,5,6,4,5,3,4,2,8,1,7,2,
6,4,4,7,5,5,8,3,3,5,2,2,6,1,7,2,
8,8,8,3,3,3,5,5,5,1,1,1,6,2,7,3,
{1}8q8[4:3],1p1[4:3],8q8[4:3],1p1[4:3],
8qq8[4:3],1pp1[4:3],8qq8[4:3],1s5[16:7]*s5[16:7],
{4}8bq8[32:15]/2b-5[8:1],2q1[32:7]/8,,,
1p1[32:15]/7-4[8:1],7p8[32:7]/1,,,
8q8[32:15]/2-5[8:1],2q1[32:7]/8,,{8},2,
1,8,7,6,5,4,3,2,
{4}1p1[32:15]/7-4[8:1],7V58[32:7]/1,,,
8q8[32:15]/2-5[8:1],2V41[32:7]/8,,,
1p1[32:15]/7-4[8:1],7V58[32:7]/1,,{8},7,
8,1,2,3,45,6^3[8:1],3,6,
1s5[4:1],,1q4[8:6]/5<3[8:6],6<3[8:5],,,,,
,,,,,3^6[8:1],6,3,
8z4[4:1]*z4[4:1],,84,3q5[16:7],,,,6,
7,8,1,2,3,4,5,6,
7v8[8:1]/3v2[8:1],,3V15[16:5]/7V15[16:5],,,,,,
2v1[8:1]/6v7[8:1],,2V84[16:5]/6V84[16:5],,,,,,
2q6[8:1],,2,7^4[8:1],,7,1q5[8:1],,
1,6^3[8:1],,6,2,1,8,7,
{4}1bpp1[32:15]/6b-4[8:1],6pp8[32:7]/1,,,
8qq8[32:15]/3-5[8:1],3qq1[32:7]/8,,,
1pp1[32:15]/6-4[8:1],6pp8[32:7]/1,,{8},7,
8,1,2,3,4,5,6,7,
{4}8qq8[32:15]/3-5[8:1],3V51[32:7]/8,,,
1pp1[32:15]/6-4[8:1],6V48[32:7]/1,,,
8qq8[32:15]/3-5[8:1],3V51[32:7]/8,,{8},2,
1,8,7,6,54,3-6[8:1],6,3,
8z4[4:1],,4>6[8:6]/8pp5[8:6],3>6[8:5],,,,,
,,,,,6-3[8:1],3,6,
1s5[4:1]*s5[4:1],,15,6pp4[16:7],,,,3,
2,1,8,7,6,5,4,3,
2qq1[8:1]/6pp7[8:1],,2V84[16:5]/6V84[16:5],,,,,,
7pp8[8:1]/3qq2[8:1],,3V15[16:5]/7V15[16:5],,,,,,
6-3[8:1],,6,2-6[8:1],,2,7-4[8:1],,
7,1-5[8:1],,1,8w4[8:1],,8,,
26,2,2,83,8,8,74,4,4,63,6,6,17,2,34,5,
4/6h[4:1],4,4,8/5h[4:1],8,8,3/7h[4:1],3,3,2h[4:1]/5,5,5,34,2,18,7,
26,3,4,75,6,5,14,2,3,84,7,6,54,3,28,7,
6h[4:1]/5,4,3,2h[4:1]/5,6,7,8h[4:1]/3,2,1,8h[4:1]/5,6,7,18,27,36,45,
E
