&title=qualia -ideaesthesia-
&artist=nitro
&first=0.58
&des=Neoaesthesia
&lv_4=10
&lv_5=13
&inote_2=(144){4},,,,
,,,,
,,,,
,,,,
,,,,
,,,,
,,,,
,,,,
,,,,
,,,,
,,,,
,,,,
,,,,
,,,,
,,,,
,,,,
,,,,
,,,,
,,,,
,,,,
,,,,
,,,,
,,,,
,,,,
,,,,
,,,,
,,,,
,,,,
,,,,
,,,,
,,,,
,,,,
,,,,
,,,,
,,,,
,,,,
,,,,
,,,,
,,,,
,,,,
,,,,
,,,,
,,,,
,,,,
,,,,
,,,,
,,,,
,,,,
,,,,
,,,,
,,,,
,,,,
,,,,
,,,,
,,,,
,,,,
,,,,
,,,,
,,,,
,,,,
,,,,
,,,,
,,,,
,,,,
,,,,
,,,,
,,,,
,,,,
,,,,
,,,,
,,,,
,,,,
,,,,
,,,,
,,,,
,,,,
,,,,
,,,,
,,,,
,,,,
,,,,
,,,,
,,,,
,,,,
,,,,
,,,,
E
&inote_3=(144){4},,,,
,,,,
,,,,
,,,,
,,,,
,,,,
,,,,
,,,,
,,,,
,,,,
,,,,
,,,,
,,,,
,,,,
,,,,
,,,,
,,,,
,,,,
,,,,
,,,,
,,,,
,,,,
,,,,
,,,,
,,,,
,,,,
,,,,
,,,,
,,,,
,,,,
,,,,
,,,,
,,,,
,,,,
,,,,
,,,,
,,,,
,,,,
,,,,
,,,,
,,,,
,,,,
,,,,
,,,,
,,,,
,,,,
,,,,
,,,,
,,,,
,,,,
,,,,
,,,,
,,,,
,,,,
,,,,
,,,,
,,,,
,,,,
,,,,
,,,,
,,,,
,,,,
,,,,
,,,,
,,,,
,,,,
,,,,
,,,,
,,,,
,,,,
,,,,
,,,,
,,,,
,,,,
,,,,
,,,,
,,,,
,,,,
,,,,
,,,,
,,,,
,,,,
,,,,
,,,,
,,,,
,,,,
E
&inote_4=(144){4}5v4[4:3],,,,
3v4[4:3],,,,
6v4[4:3],,,,
2v4[4:3],,,,
7v4[4:3],,,,
1v4[4:3],,,,
8-4[8:12],,,,
1-5[8:4],,,,
3b/6h[4:3],3,3,3h[1:1],
7,7,7,7h[1:1],
2,2,2,2h[1:1],
6,6,6,6,
{8}1,5,1,5,2,6,2,6,
3,7,3,7,4,8,4,8,
3,7,3,7,2,6,2,6,
1,5,2,6,3,7,4qq1[4:3],8qq5[8:5],
{4},,,,
3,56,3,67,
4,78,4,81,
6,34,6,23,
5,12,5,81,
3,57,4,28,
6,42,5,71,
3,24,6,57,
3,{16}6,,,E4,,E6,,,{8}C,,
6,5,6,5,7,4,7,4,
6,3,6,3,5,2,5,,
3,4,3,4,2,5,2,5,
3,6,3,6,4,7,4,,
6,4,7,3,8,2,1,,
3,5,2,6,1,7,8,,
7,5,6,4,5,3,4,,
2,4,3,5,4,6,5h[4:1],,
4-8[8:5],,,,,,,,
2b^5[2:1]/6h[4:7],,,,,,,,
7^2[2:1],,,,,,,,
7^4[2:1]/3h[4:7],,,,,,,,
2^7[2:1],,,,,,,,
2<3[2:3]/4h[4:3],,,,,,,,
8h[4:3],,,,,,,,
7>6[2:3]/5h[4:3],,,,,,,,
1h[4:3],,,,,,,,
5h[4:7]/1b,,8,,2,,7,,
3,,6,,4,,6,,
4h[4:7]/8,,1,,7,,2,,
6,,3,,5,,3,,
7h[4:7]/3,,4,,5,,6,,
8,,1,,2,,3h[4:6],,
6,,5,,4,,2,,
1,,8z4[4:1],,,,Cf,,
{16}45,,,72,,72,,,45,,,72,,72,,,
43,,,61,,61,,,43,,,61,,61,,,
45,,,72,,72,,,45,,,72,,72,,,
65,,,83,,83,,,65,,,83,,83,,,
45,,,72,,72,,,45,,78,,65,,12,,
34,,,61,,61,,,45,,12,,34,,87,,
65,,,83,,83,,,45,,3,3,4,,6,6,
5,,,72,,72,,,45,,7,7,1,,2,2,
8h[2:1],,,3,,3,3,,1h[2:1],,,6,,6,6,,
7h[2:1],,,4,,4,4,,2h[2:1],,,5,,5,5,,
6h[2:1],,,8,,8,8,,3h[2:1],,,1,,1,1,,
5h[2:1],,,7,,7,7,,4h[2:1],,,2,,2,2,,
6-1[8:1],,,B3,,B4,,,35,,71,,64,,82,,
3-8[8:1]/5,,,B6,,B5,,,64,,28,,35,,17,,
6^1[8:1]/4,,,E3,,E4,,,35,,71,,64,,82,,
3^8[8:7]/5,,,,5,,,,4,,,,4^7[8:1],,,,
{8},,3b/4b,2,,,,,
,,,,,,,,
,,,,,,,,
,,,,,,,,
,,,,,,,,
,,,,,,,,
,,,,,,,,
,,,,,,{16},,,,
{8},,,,,,,,
,,,,,,,,
,,,,,,,,
,,,,,,,,
,,,,,,,,
,,,,,,,,
,,,,,,,,
,,,,,,,,
,,,,
,,,,
,,,,
,,,,
E
&inote_5=(144){4}5h[1:6]/4p5[8:5],,,,
6q5[8:5],,,,
3p5[8:5],,,,
7q5[8:5],,,,
2p5[8:5],,,,
8q5[8:5],,,,
1-5-1b[8:13],,,,
1-5[8:5],,,,
3h[4:3]/7,6,5,4,
6h[4:3]/2,3,4,5,
2h[4:3]/8,7,6,5,
7h[4:3]/1,2,3,4,
1h[4:3]/7,8,2,3,
8h[4:3]/2,1,7,6,
4h[4:3]/5,3,1,7,
5h[4:3]/4,6,8,2z6z2b[8:7],
,,,,
6h[4:7]/4-1[16:1],4,1-5[16:1],1,
5-2[16:1],5,2-6[16:1],2,
3h[4:7]/5-8[16:1],5,8-4[16:1],8,
4-7[16:1],4,7-3[16:1],7,
7h[4:7]/2^5[16:1],2,5^8[16:1],5,
8^3[16:1],8,3^6[16:1],3,
2h[4:5]/7^4[16:1],7,4^1[16:1],4,
1^6[16:1],{16}1,,,34,,56,,,1,8,1,8,
{8}2-6[16:1],3,4h[4:1],,6-2[16:1],7,8h[4:1],,
1-5[16:1],2,3h[4:1],,5-1[16:1],6,7h[4:1],,
8-4[16:1],7,6h[4:1],,4-8[16:1],3,2h[4:1],,
7-3[16:1],6,5h[4:1],,3-7[16:1],2,1h[4:1],,
8-4[16:1],E3,4-8[16:1],,8-4[16:1],E2,4-8[16:1],,
1-5[16:1],E7,5-1[16:1],,1-5[16:1],E8,5-1[16:1],,
8^5[16:1],E3,5^8[16:1],,1^4[16:1],E7,4^1[16:1],,
{16}8,,6,5,7,,3,4,2,,8,1,{24}7x,6x,5x,4x,3x,2x,
{8}1xw5[8:5],,,,,,,,
7b/2h[8:3],,,4h[8:3],,,5h[8:2],,
6h[4:3],,,2h[8:5],,,,,
7h[8:3],,,5h[8:3],,,4h[8:2],,
3h[8:3],,,7h[8:3],,,1h[8:2],,
3h[2:2],,,5h[8:11],,,,,
,,,,,,8h[8:2],,
6h[4:4],,,4h[8:11],,,,,
,,,,,,,,
2>6-8-4-1[2:3]/7b,,7,,7,,7,,
5,,5,,5,,5,,
7<3-1-5-8-6[4:7]/2,,2,,2,,2,,
4,,4,,4,,4,,
3>4[8:11],,5,,4,,3,,
2,,1,,8,,13,,
6<2[2:1]/8,,1,,2V46[2:1],,3,,
2,,1,,{16}E8/E2,B7/B2,B6/B3,E6/E4,Cf,,,,
1^4[16:1]/5,,,7,1,7,,,2^5[16:1]/6,,,8,2,8,,,
3^6[16:1]/7,,,1,3,1,,,4^7[16:1]/8,,,2,4,2,,,
8^5[16:1]/4,,,2,8,2,,,7^4[16:1]/3,,,1,7,1,,,
6^3[16:1]/2,,,8,6,8,,,5^2[16:1]/1,,,7,5,7,,,
1^6[16:1]/5,,,3,1,3,,,84,,26,,15,,37,,
8^3[16:1]/4,,,6,8,6,,,15,,73,,84,,62,,
1/5^2[16:1],,,7,5,7,,,85,,3,4,25,,6,5,
8/4^7[16:1],,,2,4,2,,,14,,6,5,74,,3,4,
2/5^2[16:1],,,7,5,7,7,,2/4^1[16:1],,,6,4,6,6,,
1/3^8[16:1],,,5,3,5,5,,1/2^7[16:1],,,4,2,4,4,,
7/4^7[16:1],,,2,4,2,2,,7/5^8[16:1],,,3,5,3,3,,
8/6^1[16:1],,,4,6,4,4,,8/7^2[16:1],,,5,7,5,5,,
2/4-8[16:1],,,7,4,1,,,65,,78,,34,,21,,
7/5-1[16:1],,,2,5,8,,,34,,21,,65,,78,,
2/4V68[16:1],,,6,4,2,,,65,,78,,34,,21,,
7/5V31[2:1],,,3,,7,,,5,,7,,6z2[8:1],,8,,
{8},,1b/8b,2V48[8:3],5,,8<4qq1[4:4],,
4,,3,,6,,7,,
8-6>2-6[4:3],,1,,8,,6<3p5-1[4:4],,
2,,4,,1,,8,,
3-1>1>1[8:11],,5,,8,,3,,
6,,1,,4,,7V58<1<2[4:6],,
5,,4,,1,,6,,
3,,8,,1x,1x,{16}7x,7x,2x,2x,
{8}6<2[8:3]*-4[16:1],,6,,3>7[8:3]*-5[16:1],,3,,
6<2[8:3]*-4[16:1],,6,,3-5[16:1]*-1[16:1],,3,,
8-4[16:1]*<2[8:3],,8,,1-5[16:1]*>7[8:3],,1,,
8-4[16:1]*<2[8:3],,8,,1w5[16:1],,1,,
8^6[4:1],,6^4[4:1],,4^2[4:1],,2^7[4:1],,
7^4[4:1],,4^1[4:1],,1^6[4:1],,6>2[4:1],,
2x<6[4:1],,6x>1[4:1],,1x<4[4:1],,4x>4>4[4:2],,
2x,,1x,,{32}A4,A3,A2,A1,A8,A7,A6,A5,4p5[2:3]*q3[2:4]*p6[2:5]*q2[2:6]*p7[2:7]*q1[2:8],3,2,1,8,7,6,5,
{4}4bh[1:4],,,,
,,,,
,,,,
,,,,
E
