&title=キョリ感
&artist=ハコニワリリィ
&first=-1.3
&des=reflectW
&lv_5=11+
&inote_5=(110)
{1},
{8}1pp3[4:1],,,,5pp7[4:1],,,,
{8}1pp3[4:1],,,,5pp7[4:1],,,,
{8}1pp3[4:1],,,,5pp7[4:1],,,,
{8}1pp3[4:1],,,,5pp5[4:1],,,,
{8}1,,2,,3h[4:2],,4,,
{8}5p2[4:1]*-7[8:1],,,,8h[4:2],,1,,
{8}2-4[8:1]*p8[4:1],,,,3h[4:2],,4,,
{8}5p4[4:1]*-7[8:1],,,,8,,3s7[16:5]*<7[16:5],,
{24},,,,,,,,,,,8,1,,,27,,5,4,,,36,,,
{24}5,,,4,,,38,,,2h[12:1],,8,2,,,7,,,61,,,5h[8:1],,,
{24}3h[8:1],,,6h[8:1],,,4h[8:1],,,7h[12:1],,1,7,,,2,,,38,,,7,,,
{24}6,,,1,,,25,,,3h[12:1],,5,3,,,6,,,74,,,8h[8:1],,,
{24}2h[8:1],,,7h[8:1],,,1h[8:1],,,6h[12:1],,4,6,,,3,,,25,,3,4,,,
{24}1-4[24:3]/7,,,,,,6h[24:5],,,,,5,7V15[16:3],,,,,,2h[24:6],,,,,,
{24}4-7[24:3],,,,,,1h[24:5],,,,,8,2V41[16:3],,,1,,,8,,,7,,,
{24}6h[4:1]/2,,,,,,4h[24:5],,,,,5,3pp4[16:3],,,,,,7h[24:6],,,,,,
{24}3,,,6,,,2,,,5,,1,8,,,73,,,26,,4,5,,,
{24}8-5[24:3]/2,,,,,,3h[24:5],,,,,4,2V84[16:3],,,,,,7h[24:6],,,,,,
{24}5-2[24:3],,,,,,8h[24:5],,,,,1,7V58[16:3],,,8,,,1,,,2,,,
{24}3h[4:1]/7,,,,,,5h[24:5],,,,,4,6qq5[16:3],,,,,,2h[24:6],,,,,,
{24}6,,,3,,,7<8[16:4],,,4,,8,1,,,,,,3,,5,4,,,
{24}2pp5[16:4]/5-7[8:1],,,,,,,,,,,8,8,,,,,,,,,56,,,
{24}4-2[8:1]/7qq8[16:4],,,,,,,,,,,1,1,,,,,,35,,35,,,,
{24}6-8[8:1]/3qq5[4:1],,,,,,,,,,,1,1,,,,,4,5,,5,4,,,
{24}6-1[8:1],,,6,,,3-6[8:1],,,3,,,8-3[8:1],,,8,,,5-8[8:1],,,5,,,
{24}2-5[8:1],,,2,,,7-2[8:1],,,7,,,4-7[8:1],,,4,,,1,,,2,,,
{24}34,,,8,,,56,,,1,,,35,,,8,,,4/6,,,1,,,
{32}5,6,7,8,1,2,3,4,5q1[8:1]*v2[8:1],6,7,8,1,2,3,4,5b,,,,,,,,4^1[8:1]/8^5[8:1],,,,,,,,
{16}4q8[8:1]/8q4[8:1],,,,4^1[8:1]/8^5[8:1],,,,8V24[8:1]/4V68[8:1],,,,84,,,,
{16}4V28[4:1],,5,,8>5[4:1],,7,,5>8[4:1],,,,6,,,,
{16}5-8[8:1],,6,1,,,2,,4-1[8:1],5,3,6,,,7,,
{16}2h[8:1],,4h[8:1],,6h[8:1],,8h[8:1],,3,,26,,5^8[8:1]/1^4[8:1],,,,
{16}5p1[8:1]/1p5[8:1],,,,5^8[8:1]/1^4[8:1],,,,1V75[8:1]/5V31[8:1],,,,15,,,,
{16}5V71[4:1],,2,,1<4[4:1],,2,,4<1[4:1],,3,,2,,,,
{16}3v8[8:1],,2,7,,,5,,6v1[8:1],5,7,4,,,2,,
{16}7h[8:1],,5h[8:1],,3h[8:1],,1h[8:1],,8>4[8:1],,7,,68,,,,
{16}56,,7,8,7,,1v4[8:1]*v6[8:1],,4^1[8:1]/6^1[8:1],,,,,,,,
{16}43,,2,1,2,,8^3[8:1]*^5[8:1],,3v8[8:1]/5v8[8:1],,,,,,,,
{16}1,7,2,6,3,,5,,46,,37,,28,,1-3[8:1],,
{16}1-7[8:1],,1-4[8:1],,1-6[8:1],,1,,1,,,,,,,,
