&title=未完成ストライド
&artist=こだまさおり
&first=0.01
&des=愚者のオープニング
&lv_5=13
&inote_5=(146)
{1},
{8}1>3[8:1],5,7,,,6<8[8:1],2,4,
{32},,,,,,,,,,,,,,,,,,,,,,,,{8}5xh[4:1]/4x,,
{8}8>3[8:1],5,7,,,1<6[8:1],2,4,
{16},,4h[8:1]/5h[8:1],,,,,,3,4,2,,6,5,7,,
{8}8h[8:1]/1h[8:1],,7h[8:1]/2h[8:1],,5h[8:1]/4h[8:1],,6-3[8:1]/3h[8:1],,
{8}2-7[8:1],,5-8[8:1],,1-4[8:1],,7,,
{8}5h[8:1]/6h[8:1],,4h[8:1]/7h[8:1],,4h[8:1]/3h[8:1],,5h[8:1]/2h[8:1],,
{8}1qq4[8:4]/6,1/6pp4[8:3],,,,,,,
{8}2qq7[4:3],,6,,6,,6,,
{8}6h[4:1],,5h[4:1],,4h[4:1],,3h[4:1],,
{8}2qq7[4:3]
,,3,,3,,3,,
{8}3h[4:1],,4h[4:1],,5h[4:1],,6h[4:1],,
{8}7pp2b[4:3],,6,,6,,6,,
{8}6h[4:1],,5h[4:1],,4h[4:1],,3h[4:1],,
{8}1<5[16:4],,3,,8>4[16:4],,6,,
{16}8,,,,26,,3,4,3,,18,,27,,6,5,
{16}6h[4:1],,,,B3/B4,,,,35,,6,,7x/B4/B5,,,,
{16}3h[4:1]/5,,,,B6/B5,,,,64,,3,,2x/B5/B4,,,,
{16}3h[4:1]/5,,,,B6/B5,,,,35,,6,,7x/B4/B5,,,,
{16}6h[4:1]/4,,,,B3/B4,,,,64,,3,,2x/B5/B4,,,,
{8}8p3[8:1]/6h[4:1],,8x,,12,3,4x/6x,,
{8}5p1[8:1]/7h[4:1],,5x,,87,6,3x/5x,,
{8}2-5[8:1]/4,,5,6,7-4[8:1],,4,3,
{16}2-6b[8:1],,,,2x/6x,,,,45,,36,,2x,2x,8,,
{8}1pp8[4:3],,,,,,,,
{8}7qq2[4:3],,,,,,,,
{8}3qq6[4:3],,,,,,,,
{8}5pp4[2:1]*<4[2:1],,,,,,,,
{8}7qq8[16:8]/3qq4[16:8],,,,,,,,
{8}7pp1<5[16:8]/3pp5>1[16:8],,,,,,,,
{16}2-5[8:1],,,,6-1[8:1],,,,2,,3,,4>1b[8:1],,,,
{16}7-4[8:1],,,,3-8[8:1],,,,7,,6,,5<8b[8:1],,,,
{8}2>5[8:1],,7>2b[8:1],,4<7[8:1],,1,,
{8}1-4b[8:1]/8-5b[8:1],,1b/8b,,{16}6,5,7,,18,,3,4,
{8}1-5[8:1],,1-3b[8:1],8,7-3[8:1],,7-5b[8:1],1,
{8}2-6[8:1],,2-5b[8:1],7,8-4[8:1],,8-5b[8:1],1,
{8}3-7[8:1],,3-1b[8:1],4,5-1[8:1],,5-7b[8:1],3,
{8}2-6[8:1],,2-7b[8:1],5,4-8[8:1],,4-7b[8:1],3,
{8}1-5[8:1],,1-3b[8:1],8,7-3[8:1],,7-5b[8:1],1,
{8}2-6[8:1],,2-5b[8:1],7,8-4[8:1],,8-5b[8:1],2,
{8}3-7[8:1],,3-1b[8:1],5,6-2[8:1],,6-8b[8:1],3,
{8}1w5[8:1],,1,,3x/4x,2x/5x,5x/6x,4x/7x,
{8}8b/1b-5[8:1],,1V38b[16:3],8,6-2[8:1],,6V47b[16:3],1,
{8}3-8[8:1],,3V52b[16:3],6,8-4[8:1],,8V64b[16:3],3,
{8}1-5[8:1],,1V35b[16:3],8,7-3[8:1],,7V58b[16:3],1,
{8}2-6[8:1],,2V41b[16:3],1,8-4[8:1],,8V62b[16:3],2,
{8}1-4[8:1],,1-6b[8:1],7,5-8[8:1],,5-2b[8:1],1,
{8}3v5[16:3]*>7[16:3],,3x,,,8x-3[8:1]/7x-4[8:1],1x/6x,,
{8},1x-6[8:1]/2x-5[8:1],8x/3x,,,54,36,7-4[8:1]/2,
{16}8,,1-6b[8:1],,2,,3-8[8:1],,4,,5-1b[8:1],,6,,5b,,
{16}3xb-5[8:1],,,,35,,6xb-2[8:1],,,,26,,1xb-7[8:1],,,,
{16}71,,5xb-1[8:1],,,,25,,4xbw8[8:1],,,,4b,,,,
{8}7bh[8:1]/5bh[8:1],,,2bh[8:1]/6bh[8:1],,,3bh[8:1]/8bh[8:1],,
{8},6h[8:1]/4h[8:1],,,8h[8:1]/2-6b[8:1],,{16}2b/6b,,,,
{8},,,,,,,,
{8},,,,,,,,
&inote_6=
