&title=666
&artist=RoughSketch
&first=0.884
&des=Legacy
&lv_5=15
&inote_5=(333)
{16}8b,71,6qq1b[16:48]/2,53,4,,,,,,,,,,,,
{2}3,3,3,3,3,3pp8[16:48],6,6,6,6,6,6,
{4}6,27,2/7h[4:9],,
1,1,2,2,3,3,4,4h[4:8],8,8,7,7,6,6,5,5,
{8}4,5,2,7,3,6,1,8,4,5,2,7,3,6,1,8,
4,3,2,1,8,7,6,5,
{16}4b,3,2,1,8z4[4:1],7,6,5,4b/8b,,,,,,,,
{4}1b/8,8b/1,
{12}5,4,6,
{8}3,2xh`,
{12}6,4,5,
{8}3,2xh`,
{12}6,3,5,
{8}4,2xh`,
{4}8b/1,1b/8,
{12}4,5,3,
{8}6,7xh`,
1b/8,,,,27,27,27,,1b/8b,,
1,1,2,2,4,4,5,5,8,8,6,6,5,5,7h[8:1],5h[8:1],7h[8:1],5h[8:1],8h[8:1],1h[8:1],8h[8:1],1h[8:1],
{4}8b-4[6:1],1b-5[6:1],7b-4[8:1],2b-5[8:1],8b,
{8}8,8,7,7,6,6,5,5,4,4,
{16}8b,1,2,,5,,5,,1b,2,3,,6,,2b,3,4,,7,,3b,4,5,,
{4}8-4[8:1],2-5[8:1],7,
{8}18,18,18,,
2,2,3,3,4,4,
{16}6,5,6,,
{8}2,2,7b,8b,7b,8b,
6,6,2,2,8,8,
{24}2,3,4,8,7,6,
{6}5/1h`,1h`,1h`,3h[1280:1]/7h`,3h[1280:1]/7h`,3h[1280:1]/7h`,
{8}18,,7,7,
{16}2,3,4,,
{8}6,6,2,7,1,8,18,18,,
8/1-7-3-5-3-7-1b[8:9],
{4}1/8-2-6-4-6-2-8[8:8],,,,,,
{8}2x/7x,2x/7x,2x/7x,,
{4}3/7-5[8:1],37,8-4[6:1]/3,38,3/7-5[8:1],37,3/8-4[6:1],3h[8:1]/8,
6/2-4[8:1],62,1-5[6:1]/6,61,6/2-4[8:1],62,1-5[6:1]/6h[8:1],61,
3/7-5[8:1],37,8-4[6:1]/3,38,3/7-5[8:1],37,
{6}81,18,18,
{4}1h[4:1]/8h[8:3],
{32}E2,B2,B3,E4,E8,B7,B6,E6,
{8}2x,2xh[8:3],,
7,7h[8:3],,,
{4}1,
{8}1,1w5[4:1],1,,,,,
{8}28,28,2-4[8:1]/8,,
{4}1-5[8:1],8-4[8:1],7-5[8:1],
{8}3,3,1x>5[4:1],,
{4}5<1[4:1],1-5[6:1],5,
{8}7,7h[4:3],8,8,,1,,1,1-4[8:1],,
{4}1x-6[8:1],1x-5[8:1],1x,8-5[8:1],8x-3[8:1],8x-4[8:1],8x,
{8}1,,83,83,,1/6,1h[4:3]/6h[4:2],,
{4},,,,
{2}8h[2:1],2h[2:1],4h[2:1],6h[2:1],
{8}8,8,8,8,8,8,8q5b[111#16:1]*-5b[111#16:1],8h[8:3],,,,,8b,,,,
{2}7b/2b,
{8}1,6,1-5[4:1],6,1b,,7,7,3,8,3,8,4,7,3,6,2,5,2-4[6:1],5,2b,,7,7,1,6,2,7h[8:5],2h[2:1],,,,
{32}E7/E3,B6/B3,B5/B4,E5,,,,,
{4},
{8}B2,B6,B4,B8,E3/B3,E7/B7,B5/E5,E1/B1,
{16}Ch[8:3],,,,,,
{8}A6/E7/D7,A2/E3/D3,A8/E1/D1,A4/E5/D5,,
{4}7x/E3f,7x/E4f,2/E7f,2/E6f,
{8}2h[4:1]/4bh[4:1],,,6bh[4:1]/7h[4:1],,,8b-4[4:1]/2,,8/2b,,
3,3,7,5,7,5,
{16}8,7,6,5,4h[4:1],,,,
{8}2,3,2-6-2[4:2],3,2b,,A6f,,7,7,1,1,
{4}6h[4:1],5h[4:1],
{8}7,4,8,3,
{4}12,12,83,38,
{4}3h[4:1],4h[4:1],
{8}2,5,1,6,
{4}87,6>7[16:7]/1,16,,
{16}6,5,4,3,2>1[16:7],1,8,7,2/6h[2:1],,,,,,,,
2xb,3,4,5,6,7,8,1,2,3,4,5,6,7,8,1,
2x/7,6,5,4,3,2,1,8,7x,6,5,4,3x,2,1,8,
3b/7,4,5,6,7x,8,1,2,3,4,5,6,7,8,1,2,
3x/6,5,4,3,2,1,8,7,6x,5,4,3,2x,1,8,7,
2b/6,3,4,5,6,7,8,1,2,3,4,5,6,7,8,1,
2/7,6,5,4,3,2,1,8,7,6,5,4,3,2,1,8,
3b/7,4,5,6,7b,8,1,2,3b,4,5,6,7b,8,1,2,
37,6,5,4,3<2[16:7],2,1,8,3/7h[2:1],,,,,,,,
3b,4,5,6,7,8,1,2x/7h`,3,4,5,6,7,8,1,2,
3x/7,6,5,4,3,2,1,8,7x/2h`,6,5,4,3x,2,1,8,
7/2b,3,4,5,6xb,7,8,1,2,3/6h`,4,5,6,7,8,1,
2x/6,5,4,3,2,1,8,7,6x/3h`,5,4,3,2x,1,8,7,
6/3b,4,5,6,7,8,1,2,3/7h`,4,5,6,7b,8,1,2,
3/7,6,5,4,3b,2,1,8,7/2h`,6,5,4,3,2,1,8,
7/2b,3,4,5,6,7,8,1,2/6h`,3,4,5,6,7,8,1,
{2}2pp8[4:8]/6,,,7,8x-4-6-2[4:5],,,,7v5v3v1v7[4:13],,2,2,2h[4:6],,,,
{4}E2,E3,E4,E5,E6,E7,E8,E1,E2,E3,E4,E5,E6,E7,E8,E1,
E2/6qq1b[2:2],,,,
{2}3,3-6b[41.625#64:1],3h[4:4]/7h[4:6],,,3b,
{4}1/8b,8/1b,
{12}5,4,6,
{8}3,2xh`,
{4}1/8b,8/1b,
{12}6,4,5,
{8}3,2xh`,
{4}1/8b,8/1b,
{12}6,3,5,
{8}4,2xh`,
{4}1/8b,8-5[6:1]/1b-4[6:1],,,
8/1b,1/8b,
{12}4,5,3,
{8}6,7xh`,
{4}8/1b,1/8b,
{12}3,5,4,
{8}6,7xh`,
{4}8/1b,1/8b,
{12}3,6,4,
{8}5,7xh`,
{4}8/1b,8b-5[6:1]/1-4[6:1],,,
6,6h[4:1],
{8}8,7,8,7,
{4}16,16,25,25,
3,3h[4:1],
{8}1,2,1,2,
{4}83,83,74,74,
{8}6,3,6,3,7,2,7,2,8,1,8,1,18,81,1-4b[8:1]/8-5b[8:1],81,E1`Cf`E5,,,,,,,,,,,,,,,,
{2}B5/Cf/B8/E1/B7/B6/B4,B5/B4/Cf/B8/E1/B7/B6,B5/B4/Cf/B8/E1/B7/B6,
{8}15,15,1h[4:1]/5h[4:1],,
{32},E2,B2,B3,E4,,,,1x,E1,B8,B7,E7,,,,
{8}3,3,7x-4[8:1],,
{4}3-8[8:1],6-1[8:1],2-5[8:1],7,
{32}8,E8,B7,B6,E6,,,,8x,E1,B1,B2,E3,,,,
{8}6,6,2x-5[8:1],,
{4}6-1[8:1],3-8[8:1],7-4[8:1],2,
{32}1,E2,B2,B3,E4,,,,1x,E1,B8,B7,E7,,,,
{8}3,3,7x-4[8:1],,
{4}3-8[8:1],6-1[8:1],2-5[8:1],7,
8/3xh[4:1],
{8}7^4[8:1],7,3^8[8:1],3,
{4}7x,
{8}6-8[8:1],6,4-2[8:1],4,5-1[8:1],,1xh[8:6],,
{4},
{8}6,6,6,,
{4}2-5[8:1]/6,
{8}2/6-1[8:1],6,3-8[8:1],3,7-4[8:1],7,2,,
3,3,3-1[8:1],,
5-7[8:1],5,4,4,
8,8,1,1,
{6}27,36,45,
{8}3,3,7,7,
{4}1h[4:1],6-1[8:1],
{8}6/2-5[8:1],2,7-4[8:1],7,3-8[8:1],3,
6v1[8:1],6,2v5[8:1],2,7v4[8:1],7,3v8[12:1],3,
6,6h[8:5],,,,,
1,8,
{16}2,7,2,7,
{8}1-5[8:1],1,8-6[8:1],8,2-4[8:1],2,8,8,
{16}5,6x,5,,
{8}7,7h[8:2],,4,5,4,
{8}8-4[8:1],8,1-3[8:1],1,7-5[8:1],7,1,1,
{12}8,2,8,2,8,2,7,1,7,1,7,1,
{8}8-4[8:1],8,1-3[8:1],1,
{16}7,6,5,,
{8}1xh[8:1],,
{8}1-5[8:1],1,8-6[8:1],8,
{16}2,3,4,,
{8}8xh[8:1],,
{16}4,5,4,,
{8}6,2,
{16}5,4,5,,
{8}3,7,
{16}4,6,4,6,4,,,,5,3,5,3,5,3,5,,
{8}2x^5[8:1],2,6x^1[8:1],6,2xpp4[8:1],2x,6xpp8[8:1],6,3x,3x,7x,7x,
E2,B2,B3,E4,
{8}7x^4[8:1],7,3x^8[8:1],3x,7xqq5[8:1],7x,3xqq1[8:1],3x,6x,6x,2x,2x,
{32}8xh[1280:1]`E8,B7,B6,E6,5xh[8:3],,,,
{8},,
{16}1b,2,3,4,7b,6,5b,4,
{8}1b,1b,8bh[8:1],,
{16}2b,3,4,5,8b,7,6b,5,
{8}2b,2b,1b,3,6,6,
{32}2x,3x,4x,5x,6x,7x,8x,1x,
{8}2xh[8:2],7xh[1280:1],
{32}7xh[1280:1]/E2,E1,E8,E7,E6,E5,E4,E3,
{2}E2/5x-1[8:1],5w1[8:1],
{16}7,6,3,4,7,6,3,4,7,6,3,4,7,6,3,4,
7,6,3,4,7,6,3,4,7,6,3,4,7,6,3,4,
7,6,3,4,7,6,3,4,7,6,3,4,7,6,3,4,
{4}7b-2b[8:1],7b-4b[8:1],7b,1b,
{16}2,3,6,5,2,3,6,5,2,3,6,5,2,3,6,5,
2,3,6,5,2,3,6,5,2,3,6,5,2,3,6,5,
{4}1b,8b/1,
{12}5,4,6,
{8}3,1xh`,
{12}6,4,5,
{8}3,1xh`,
{12}6,3,5,
{8}4,1xh`,
{16}2xbqq5[166.5#8:5]`6xbqq1b[166.5#8:5],37,48,51,
