&title=ENTANGLEMENT
&artist=ABE3
&first=0.7
&des_5=Kondou vs 叶落知秋
&lv_5=14
&des=Kondou vs 叶落知秋
&inote_5=(140)
{4}1-4[4:3],,,,5-8[4:3],,,,1>5[3:2],,4<8[3:2],,7>3[3:2],,2>6[3:2],,
5<3>4[6:13],,,,
(125){4}7h[1:1],,,,
(110){4},,
(75.5){4}Ch[4:1],,
(164){16}
2b,1,,2,1,,3,1,,4V25[4:1],1h[8:3],,,,,,
,,,,6,5,,6,5,,7,5,,8V26[4:1],5h[8:3],,
,,,,,,,,3,4,,2,4-1[8:1],,3,5,
4,,,,7,8,,6,8-5[8:1],,7,1,8,,,,
2,1,,3,1-4[8:1],,2,8,
1,,,,6,5,,7,5-8[8:1],,6,4,5qq5[4:1],,,,5b<1[16:3]/1b<5[16:3],,,,,,,,
2x,3,4,8x,7,6,1x,2,3,7x,7x,5x,4,3,6x,7,8,
2x,1,3-8b[8:1],8,4,7,3bpp6[2:1],,,,,,,,,
,,,B8/B1,,,,1,8,1,8,1,2,3,4h[16:3],,
,1,2,3,4,8,1,2,3h[16:3],,,7,6,5,4,8,7,6,5h[16:3],
,,1,2,3,4,8,1,2,3,8,7,6,5,1,8,7,6h[16:3],,,8,1,8,1,8,7,6,5h[16:3],,
,8,7,6,5,1,8,7,6h[16:3],
,,1,2,3,4,8,1,2,3,8,7,6,5,1,8,7,6h[16:3],,,8,7,8,7,1,2,3,4h[16:3],,
,2,3,4,5,1,2,3,4h[16:3],
,,1,2,3,4,8,1,2,3,7,8,1,2,6,7,8,1h[16:3],,,8,2,8,2,8,7,6,5h[16:3],,
,7,6,5,4,8,7,6,5h[16:3],
,,8,7,6,5,1,8h[32:1],7h[32:1],6,2,1,8,7,3,2,1,8,5,7h[8:1],,4,6h[8:1],,3,5h[8:1],,
2,4h[8:1],,1b<6[8:1],,2,,13,,4h[8:1],,5,3h[8:1],,6,4h[8:1],,7,5h[8:1],,
8,6h[8:1],,1-4[8:1],,8,,17,,7,,8b/5,
,5,7,,7,8,,8,2,,2,4>2[8:1],,,,8,
7,6,5,41,,1,3,,3,4,,4,6,,6,7qq7[32:7]/1,
,,,8>2p4[4:3],1,2,3,4bx<6p8b[2:1],,,,,,,,,
,,,,,,,1hx[2:1],,,,,,4,,4-6[32:3],
,,,4>8[4:1],,,,7,,6,,5h[2:1],,,,,
,1,,1-3[32:3],,,,1<5[4:1],,,,2,,3,,4h[2:1],
,,,,,3,,3v8[8:1],,,,3>5b[4:1],,,,1h[4:1],
,,,A5f/E6/D6,,,8-4[16:1],,,1-3[16:1],,,7-5[16:1],,,1,
2,3,4,1,8,7,6,5/2-5[16:1],,,8-4[16:1],,,3-8[16:1],,,
5<8[16:1],,,1h[16:1],,1h[16:1],,2h[16:1]/8h[16:1],,2h[16:1]/8h[16:1],,7-3[16:1]/3,,,2-6[16:1],,
,4-8[16:1],,,7>2[16:1]*<4[16:1],,,7bx,,,,8x-4[8:1]/1x-5[8:1],,27,,1b/8b,
,,,3-8[8:1],4,,5,5,,7-4[8:1],1,,2,2,,1,
,82,,6-1[8:1],5,,4,4,,2-5[8:1],8,,7,7,,8,
,17,,2,4,2,6,5,6,3,4,3,7,5,7,2,1,3,6,5,7,3,4,2>5[8:1],7,8,6,2,,8,,17,
,17,,8b/2b,,3,4,1-5[8:1],,8,2,1,,2,7,8-5[8:1],
,6,1,8,,2,6,8-4[8:1],,7,1,8,,2,5,1<6[8:1],
,8,3,1,,2,5,4-8[8:1],,6,3,4,,2,7,5v4-2[16:5],
,6,4,5,,,1,1hx[4:1],,,,2x,,2,,1x>4[8:1]/3,
,2,,1b/8,,6,5,8-4[8:1],,1,7,8,,7,2,1-4[8:1],
,3,8,1,,7,3,1-5[8:1],,2,8,1,,7,4,8>3[8:1],
,1,6,8,,7,4,5-1[8:1],,3,6,5,,7,2,4-2[32:3],
,3,5,4pp6[16:3],,,6>1[4:1],4x,,8,,7x,,7,,6/8x<5[8:1],
,7,,8b/1-4[8:1],,3,4,1-5[8:1],,8,2,1-3[32:3],,2,7,1,
,6,1,8v3[8:1],,2,6,8-6[32:3],,7,1,8-4[8:1],,2,5,8,
,7,3,5-2[8:1],,3,6,5-1[8:1],,7,1,5-3[32:3],,2,7,5pp5[4:1],
,6,4,5qq3<8[16:7],,,3,3x,,1,,2x,,2,,3/1x>4[8:1],
,2,,1b/8-5[8:1],,6,5,8-4[8:1],,1,7,8-6[32:3],,7,2,8,
,3,8,1v6[8:1],,7,3,1-3[32:3],,2,8,1-5[8:1],,7,4,1,
,2,6,8b-5[8:1]*-3[8:1],,17,,8,,,,4b>1[8:1]*<7[8:1],,53,,4,,,,8b-4[8:1],,7,,8/2b>5[8:1],,1,,2/6bv1[8:1]*p2[8:1],,7,,6b,
,,,8b,7,6,5<8[16:3],,,,2,3,4,5,
1,2,3,4>1[16:3],,,,7,6,5,4,8,7,6,5,48,37,26,15,
4,3,2,1>4[16:3],,,,6,7,8,1,5,6,7,8,
1,2,3,4<7[16:3],,,,1,2,3,4,8,1,2,3,
4,5,6,7v5[16:3],,,,3,2,1,8>3[16:3],,,,5,6,7,8,4,5,6,7,
84,15,26,37,8,1,2,3<6[16:3],,,,
8,1,2,3v1[16:3],,,,8,7,6,5<8[16:3],,,,
2,3,4,5,1,2,3,4,51,62,73,84,5,6,7,8,17,26,35,4b>1[8:1],,,
8,7,6,5h[16:3],,,7>4[16:3],7,,,6,6,
,,57,,8,,3,4,2,4,,,6,5,7,5,
,,1,1h[8:1],,8,8h[8:1],,3,4,2,8,1,7,5,6,
,4,4h[8:1],,6,5,7,1,8,2,4,3,5h[8:1],,6,6h[8:1],
,8,8h[8:1],,2x,,2hx[8:1],,3,3h[8:1],,1,1h[8:1],,8,1,
8,1,8,1,8,1,7,5,6,5,7,,2,4,3,4,2,,
8,1,8,,2,7,2,7,1b,1,6,2,2,8,
3,3,5,4,6,5,8,8,3,7,7,1,
6,6,4,5,3,4,1h[8:1],,4,2,8,5,7,1,8,2,4,1,7,5,
6,8,7,2,1,3,5x,6,7,8,2-6[8:1],2,1,1,2b,8h[8:1],
,,5>2[8:1],7,,7,5b,8,8,,7p3[8:1],1,,1,7b,
8,8,,2,1,,1,2b,3,4,5,6/1b,8,7,6,5/8b,
1,2,3,7b,5,7,5,6b-1[8:1],6,,5,6,,4-7[8:1],4,,
3,4,,2-5[8:1],2,,1,2,,7,7,,8,7b,6,5,
4,2b,1,2,1,3b-8[8:1],3,,4,3,,5-2[8:1],5,,
6,5,,7-4[8:1],7,,8,7,,2,2,,1,2b,3,4,5,7b,
8,7,8,6b-8[32:3],5,,4,4,,3-5[32:3],2,,1,1,,8-2[32:3],
7,,6,6,,5,4,,3,1b,8,7,6,3b,4,3,4,
2b,2,8,4,4,6,1,1,7,3,3,5,5,2,7,7,
4,6,6,1-5b[8:1],1,8,8,1b,,7,76,,2,23,,8,
4,6,2,4,3,2,1,8b-4b[16:1]/5b-2b[16:1],3b,1b,7b,8b/5b/B4f,,,,,
,,,,,,,,,,,,,,,,
,,,,,,,,,,,,,,,,
,,,,,,,,,,,,,,,,
,,,,,,,,,,,,,,,,
,,,,,,,,,,,,,,,,
,,,,,,,,,,,,,,,,
E
