&title=Apollo -onoken AxSwing Remix-
&artist=onoken
&first=0
&des=zephyr
&clock_count=4
&lv_5=14
&inote_5=(118){1},,
{24}6,,6,4,,4,5,,5,3,,3,4h[8:3],,,E3,E4,E5,,,,E7,E8,E1,
{24}5,,5,2,,2,6,,6,3,,3,7-4[8:1],,,4pp6[8:1],,,3/7,,,,,,
{24}3,,3,5,,5,4,,4,6,,6,5h[8:3],,,E7,E6,E5,,,,E3,E2,E1,
{24}4,,4,7,,7,3,,3,6,,6,2-5[8:1],,,5qq3[8:1],,,6/2,,,,,,
{24}6,,6,5,,5,7,,7,4,,4,8,,,7h[12:1]/E2,E3,E4,,,,8h[12:1]/A5,A4,A3,
{24}8,,8,2,,2,6,,6,4,,4,7v4[8:1],,,4q1[8:1],,,7/2,,,,,,
{24}2,,2,1,,1,3,,3,8,,8,4,,,7h[12:1]/E2,E3,E4,,,,8h[12:1]/A5,A4,A3,
{8}8,8,1-6[8:1]/7-2[8:1],2x-4-8[4:1]/6x-4-8[4:1],1/7,,,,
{8}1x/Ch[4:7],,1,,2,,2,,3x,,3,,4,,4,,5x/Ch[4:7],,5,,6,,6,,7x,,7,,8,,8,,
{8}5b/6b,4,3,2,1/8,7,6,5,4/3,5,6,7,8/1,2,3,4,{12}5x/6x,5/6,5/6,4x/7x,4/7,4/7,
{24}3,4,5,6,7,8,1/6,5,4,3,2,1,{16}8-4b[8:4],,2h[8:1],,,,,,1,,1,,1v6[8:1],,,,
{16}1/5,,,,7xqq5[8:1]/4,,5q1[8:1],,3h[8:1],,,,3-6[8:1],,8xh[8:1],,
{16}3qq8[8:3],,,,
{32}7bx,6,5,,,,,,6bx,5,4,,,,,,1bx>4b[8:1]/5bx<8b[8:1],,,,,,,,
{8}1bs5[4:1]/5b,,4h[8:1],,3h[8:1],,2>5[8:1]/5<8[8:1],1,
{8}2/5,,8q4[8:1],4<7[8:1],2h[8:1],,8v3[8:1],,
{16}8/4,,,,2xv4[8:1]/5,,4p8[8:1],,6h[8:1],,,,6-3[8:1],,1xh[8:1],,
{16}6pp1[8:3],,,,
{32}2bx,3,4,,,,,,3bx,4,5,,,,,,8bx<5b[8:1]/4bx>1b[8:1],,,,,,,,
{8}8bz4[4:1]/4b,,5h[8:1],,6h[8:1],,7/4V68-2-4q4[4:3],8,
{8}7/4,,6h[8:1],,7h[8:1],,8bh[4:1],,
{24}2,,2,1,,3,4,,2,1,,3,4h[12:1],,,2,4,3,5h[12:1],,,3,5,2,
{24}4x,,2,1,,3,4,,1,8,,4,5h[8:1],,,4,3,2,1h[8:1],,,8,,,
{24}7,,7,8,,6,5,,7,8,,6,5h[12:1],,,7,5,6,4h[12:1],,,6,4,7,
{24}5x,,7,8,,6,5,,8,1,,5,4h[8:1],,,5,6,7,8h[8:1],,,1,,,
{4}2xh[16:3]/7xh[16:3],
{24}2b<7[8:1]/7b,,,6,,6,2>5[8:1],,,5,,5,2,,,6,7,8,
{24}1,,5,1,,8,4,,3,7,,6,2,1,8,7,6,5,4,,,2/7,,,
{24}7>2[8:1]/2,,,3,,3,7<4[8:1],,,4,,4,7,,,3,2,1,
{24}8,,4,8,,1,5,,6,2,,3,7,,8,4,,5,1,8,7,5,4,3,2/6,,,7,,,
{16}3p5[16:3],,,5<3[4:1],3,,4,,4h[8:1],,,5h[8:1],,,6/4,,
{16}7p1[16:3],,,1>7[4:1],7,,8,,8h[8:1],,,1h[8:1],,,2/8,,
{16}2h[8:1],,,3h[8:1]/5h[8:1],,,4/6,,7h[8:1],,,6h[8:1]/4h[8:1],,,5/3,,
{16}2-7-5[4:1],,,,5V31[4:1]/2,,6,,7h[8:1],,,,6,,,,
{16}6q4[16:3],,,4V68-2[4:1],6,,3,,3h[8:1],,,3h[8:1],,,3/5,,
{16}3p5[16:3],,,5V31-7[4:1],3,,6,,6h[8:1],,,6h[8:1],,,6/4,,
{16}7h[8:1],,,6h[8:1]/4h[8:1],,,5/3,,2h[8:1],,,3h[8:1]/5h[8:1],,,4/6,,
{12}3/5,2/4,1/8,5/7,4/6,3/5,2/4,1/8,5/7,2/4,1/8,2/7,
{24}3/6,,3,5,,5,4,,4,6,,6,2,,2,4,,4,1,,1,7,,7,
{16}3,3,4,2,5,1,6,6,5,7,4,8,{24}3,,8b/3b,,,,
{24}6/3,,6,4,,4,5,,5,3,,3,7,,7,5,,5,8,,8,2,,2,
{16}6,6,5,7,4,8,3,3,4,2,5,1,{24}6,,1b/6b,,,,
{16}2/5,3,4,5/8,7,6,5/1,2,3,4/7,6,5,4/2,3,4,
{16}8/5,7,6,5/2,3,4,5/1,8,7,6/3,4,5,6/8,7,6,2/5,3,
{12}4/5,5,5/6,6,6/7,7,{24}8,7,8,7,8,7,1-5b[8:5],8,1,8,1,8,1b,,,,,,
{16}1x-5[8:1],,,,,,,,8b/Cf,,,,
{32}7p1[8:1],6,5,,3<6[8:1],,,,7,,,,3,,,,7p3[8:1],,,,8/2,,,,7,,,,1,,,,
{16}2/3>7[8:1],,1,,3/5h[4:1],,,,6V82-4[4:1],,5h[8:1],,,,6,,
{24}8-4[8:1],,5,6,,1,8,,,2-6[8:1],,4,3,,1,2,,,7qq4[2:1],,,,,,
{32}5,,,4,,,3,,3,,,2,,,1,,1,,,2x/5x,,,3x/6x,,4xpp2qq7[4:3]/7xh[4:1],,,,,,,,
{16}4,,,,B5/B6/E6,,B1/E1/B8,,5,,5,,5-8[8:1],,6,,
{16}3-7[8:1]/5,,2,,1-5[8:1]/3,,8,,1/2-6[8:1],,,,2/8,,7,,
{24}7,,7,6,,6,5,,5,4,,4,3,,3,2,,2,1,,1,8,,8,
{16}1p8[2:1],,,,{12}7,6,5,4,3,2,1b,,,
{24}7,,7,8,,6,5,,1,2,,4,3h[12:1],,,7,5,6,4h[12:1],,,6,4,7,
{24}5x,,7,8,,6,5,,8,1,,5,4h[8:1],,,5,6,7,8h[8:1],,,1,,,
{24}2,,2,1,,3,4,,8,7,,5,6h[12:1],,,2,4,3,5h[12:1],,,3,5,2,
{24}4x,,2,1,,3,4,,1,8,,4,5h[8:1],,,4,3,2,1h[8:1],,,8,,,
{4}7xh[16:3]/2xh[16:3],
{24}7b-1>2[8:1]/2b,,,3,,3,7-5>4[8:1],,,4,,4,7,,,3,2,1,
{24}8,,4,8,,1,5,,6,2,,3,7,8,1,2,3,4,5,,,7/2,,,
{24}2b-8<7[8:1]/7b,,,6,,6,2-4<5[8:1],,,5,,5,2,,,6,7,8,
{24}1,,5,1,,8,4,,3,7,,6,2,,1,5,,4,8,1,5,2,6,3,7-3[8:1],,,,,,
{16}7-5[8:1],,4,,7,,2,,{24}2,,2,4,,4,3x/4x,,5x/6x,,7x/8x,,
{16}1x/2x,,2,,{24}2h[8:1]/8,7,6,5,,,1h[8:1]/7-3[8:1],6,5,4,,,
{16}7-1[8:1],,2,,7,,4,,{24}4,,4,2,,8,4,5,6,7,8,1,7h[12:1],,1h[12:1],,5,,
{16}2/4,,2/4,,{24}3,4,3,4h[8:1],,,{16}2-4[8:1],,5,,2-6[8:1],,7,,
{16}2,5,5,,5/7,,6/8,,1/7,,2/8,,3/4,,1/7,,
{24}2/8h[8:1],3,4,5,,,5/6,,,1/7,,,2/8h[6:2],,2,,2,,3,,3,,3,,
{24}6,4,7,5,8,,5,,4/6,,3/7,,2,8,3,7,4h[12:1],,7,8,6,1,5h[12:1],,
{16}2-5[4:1],,1,,8,,7,,6-1[4:1],,5,,4,,3,,
{16}2>5[4:1],,1,,8,,7,,6<1[4:1],,5,,4,,3,,
{24}2,,3,,4,,5,,6,,7,,7,6,5,4,3,2,1/3,4,5,6,7,8,{4}1bh[4:3]/5bh[4:3],,
{1},
