&title=Paranoia
&artist=DiGiTAL WiNG feat.花たん
&first=0
&des=Dororo
&lv_5=13+
&inote_5=(150)
{16}
,,,,,,,,,,,,,,,,
3-5[8:1]/5h[4:1],,,,,,,,5-3[8:1]/7h[4:1],,,,,,,,
3V51[4:1]/5h[4:1],,,,,,,,7,,8,,16,,,,
6-4[8:1]/4h[4:1],,,,,,,,4-6[8:1]/2h[4:1],,,,,,,,
6V48[4:1]/4h[4:1],,,,,,,,2,,1,,83,,,,
3v8[8:1],4,3,,5,,5,,7-5[8:1],8,7,,1,,1,,
3v8[8:1],4,3,,5,,5,,7,8,7,8,16,,,,
6v1[8:1],5,6,,4,,4,,2-4[8:1],1,2,,8,,8,,
4b<3[2:1]/8h[4:3],,,,,,,,,,,,,,,,
5pp4[2:1]/3qq4[2:1],,,,,,,,,,,,,,,,
2-4[8:1],,,,1-5[8:1],,,,8-4[8:1],,,,7-5[8:1],,,,
2h[4:3],,,,,,,,6h[4:1],,,,,,18,,
1-5[8:1]/8,,,,7-4[8:1]/1,,,,3-1[8:1]/7,,,,3b/4b,,,,
2q3[2:1]/7p6[2:1],,,,,,,,,,,,,,,,
2,1,,3,4,,7,8,,6,5,,45,,,,
6^3[8:1]/3,,,,,,,,13,,35,,57,,17,,
1-5[8:1]/3-7[8:1],,,,1^4[8:1]*^6[8:1],,,,1,,,,1,,1,,
1/8h[4:1],,{32}7,6,5,4,{16}3h[4:1],,{32}1,8,7,6,{16}5-1[8:1],,,,6b/5b,,,,
7,8,7,,1,8,,2,1h[16:3],,,3h[16:3],,,5,,
4h[8:1]/6h[8:1],,,7h[8:1]/8h[8:1],,,3h[8:1]/5h[8:1],,,1h[8:1]/2h[8:1],,,38,,,,
6,5,6,,4,5,,3,4h[8:3],,7,,1,,3,,
2h[8:1]/5h[8:1],,,7h[8:1]/8h[8:1],,,46,,7-3[8:1],8,,8,7b,,,,
2,1,2,,8,1,,7,8h[16:3],,,6h[16:3],,,4,,
5h[8:1]/3h[8:1],,,2h[8:1]/1h[8:1],,,6h[8:1]/4h[8:1],,,8h[8:1]/7h[8:1],,,61,,,,
3,4,3,,5,4,,6,5h[8:3],,2,,8,,6,,
7b-5[8:1],,,,1b-3[8:1],,,,8b-4[8:1],,,,,,,,
2,1,2,,8,8-5[8:1],,3-8[8:1],,8,,3,,4,,6,
1,8,1,8,3,4,2,5^8[8:1],,4,,3,,2,,1,
6,5,6,,4,4-8[8:1],,7-4[8:1],,4,,7,,1,,3,
6,5,6,5,8,1,7,2-6[8:1],,35,,2,,8,,5,
7,8,7,,1,1-4[8:1],,6-1[8:1],,1,,6,,5,,3,
8,1,8,1,6,5,7,4^1[8:1],,5,,6,,7,,8,
3,4,3,,5,5-1[8:1],,2-5[8:1],,5,,2,,8,,6,
3,4,3,4,1,8,2,7-3[8:1],,46,,7,,1,,5,
4b,,7,,7,,3,4,2,,2,,6,5,6,5,
7-3[8:1],,,,73,,2^7[4:1],,,,7^4[4:1],,,,4^1[4:1],,
,,1pp8[8:3],,,,6,,6h[4:1],,,,,,,,
1-5[8:1],,,,15,,6q3[4:1],,,,3>6[4:1],,,,6,,
,,4pp4[8:3]*qq4[8:3],,,,4,,,,,,,,,,
2-6[8:1],,,,26,,7^2[4:1],,,,2^5[4:1],,,,5^8[4:1],,
,,8qq1[8:3],,,,3,,3h[4:1],,,,,,,,
8-4[8:1],,,,48,,3>6[4:1],,,,6,,,,,,
5b,4,5,4,5,4,5,4,5,4,5,4,5,4,5,4,
6-1[8:1],,,,1-6[8:1]/6-2[8:1],,,,6-1[8:1],,,,1-6[8:1]/6-3[8:1],,,,
6-1[8:1],,,,1-6[8:1]/6-4[8:1],,,,6-1[8:1],,,,1-6[8:1]*-4[8:1]/6,,,,
1-5[8:1],,,,5-1[8:1]/1-7[8:1],,,,1-5[8:1],,,,5-1[8:1]/1-6[8:1],,,,
1-5[8:1],,,,15,,,,65,,45,,34,,,,
3-8[8:1],,,,8-3[8:1]/3-7[8:1],,,,3-8[8:1],,,,8-3[8:1]/3-6[8:1],,,,
3-8[8:1],,,,8-3[8:1]/3-5[8:1],,,,3-8[8:1],,,,8-3[8:1]*-5[8:1]/3,,,,
8-4[8:1],,,,4-8[8:1]/8-2[8:1],,,,8-4[8:1],,,,4-8[8:1]/8-3[8:1],,,,
8-4[8:1],,,,4w8[8:1]/8,,,,4,,,,2b/6b,,,,
4qq5[2:1]/6pp5[2:1],,,,,,,,,,,,,,,,
7qq5[8:1],,,,1pp3[8:1],,,,8qq6[8:1],,,,2pp4[8:1],,,,
7h[4:3],,,,,,,,3h[4:1],,,,,,81,,
8-4[8:1]/1,,,,2-5[8:1]/8,,,,6-8[8:1]/2,,,,6b/5b,,,,
7p7[2:1]/2q2[2:1],,,,,,,,,,,,,,,,
7,8,,6,5,,2,1,,3,4,,54,,,,
3^6[8:1]/6,,,,,,,,86,,64,,42,,82,,
8-4[8:1]/6-2[8:1],,,,8-5[8:1]*-3[8:1],,,,8,,,,2b/6b,,,,
3,4,2h[8:1],,1,2,8,1,7,8,7,,68,,1,8,
3,4h[8:1],,2,5h[8:1],,3,6h[8:1],,4,7h[8:1],,5,8,1,8,
3,4,2h[8:1],,4,3,5,4,6,5,6,,57,,8,1,
6,5,6,3,4,3,7,5,7,2,4,2,8b,,,,
6,5,7h[8:1],,8,7,1,8,2,1,2,,31,,8,1,
6,5h[8:1],,7,4h[8:1],,6,3h[8:1],,5,2h[8:1],,4,1,8,1,
6,5,7h[8:1],,5,6,4,5,3,4,3,,42,,1,1,
2-6[8:1]/8-4[8:1],,,,8p3[8:1]*q5[8:1],,,,8,,,,8,,8,,
8/1h[4:1],,{32}2,3,4,5,{16}6h[4:1],,{32}8,1,2,3,{16}4-8[8:1],,,,3b/4b,,,,
2,1,2,,8-4[8:1],1,,7,8,,6,6,,4,4,,
5h[8:1]/3h[8:1],,,2h[8:1]/1h[8:1],,,6h[8:1]/4h[8:1],,,8h[8:1]/7h[8:1],,,61,,61,,
3,4,3,,5-2[8:1],4,,6,5,,1,,7,,5,,
7h[8:1]/4h[8:1],,,2h[8:1]/1h[8:1],,,53,,2-6[8:1],1,,1,2b,,,,
7,8,7,,1-5[8:1],8,,2,1,,3,3,,5,5,,
4h[8:1]/6h[8:1],,,7h[8:1]/8h[8:1],,,3h[8:1]/5h[8:1],,,1h[8:1]/2h[8:1],,,38,,38,,
6,5,6,,4-7[8:1],5,,3,4,,8,,2,,4,,
2b-4[8:1],,,,8b-6[8:1],,,,1bs5[8:1],,,,,,,,
7,8,7,,1,1-5[8:1],,7-3[8:1]/8,,16,,7,,4,,2,
8,1,8,1,6,5,7,4-1[8:1],,56,,47,,8,,8,
3,4,3,,5,5^8[8:1],,2q6[8:1]/6,,35,,2,,1,,7,
3,4,3,4,1,8,2,7-3[8:1],,64,,7,,1,,4,
2,1,2,,8,8-4[8:1],,2-6[8:1]/1,,83,,2,,5,,7,
1,8,1,8,3,4,2,5-8[8:1],,43,,52,,1,,1,
6,5,6,,4,4^1[8:1],,7p3[8:1]/3,,64,,7,,8,,2,
6,5,6,5,8,1,7,2-6[8:1],,53,,2,,8,,4,
4b>5[1:2]/5b<4[1:2],,,,,,,,,,,,,,,,
,,,,,,,,,,,,,,,,
,,,,,,,,,,,,,,,,
,,,,,,,,,,,,,,,,
E
