&title=VIVID ABYSS
&artist=katagiri[BWC Grand Finals Tiebreaker]
&first=0.06
&des=Kacka & differ
&des_5=
&lv_5=15
&inote_5=(208){4},{1},,,{4},,,{48}8b/1b,
7p6[48:251]`2q3b[48:251],3/6,4/5,{1},,,,,{4},,{16},,{24},{8}6,
{16}8,1,
2h[16:5],,,,,6h[48:17],{48},,,,,,,,,,,,,,{24}4,3h[24:7],,,,,,,{8}Cf/B7/B6/B5/B4/B3/B2/B1/B8,
{16},,,,3,7,{2}1-5[8:1],
{4}6-1[4:3],4,4,4,
3-8[4:3],6,6,6,
{8}7,{16}2,1,{8}2,6,5/2,3,4/7,6,
2,{16}7,8,{8}7,1,{16}8-4[8:1],7,{8}6-1[8:1],,,2<7[8:1],
3,4,5>2[8:1],6,7,8<5[8:1],1,
2,3v8[8:1],4,5,6-8[8:1],1-5[8:1],6,1,
{4}E7f/B7/B6,{16}1,2,3,4,1,8,7,6,1,2,3,4,
{8}7/5,7/5,4/6,4/6,{16}3,5,3,5,2,6,2,6,
2bh[8:1]/B4/B5,,,6bh[8:1]/B1/B8,,,{8}3bh[8:1]/C,{4}8b,{16}7bh[8:1]/B5/B4,,,3bh[8:1]/B8/B1,
,,{8}6bh[8:1]/C,{4}1bV73[8:3]*z5b[8:3],{16},,,,,,,,4b,
4b,,6b/C,,,{8}2b/C,{4}8b/Cf,{16}7b,7b,,3b/C,
,,{8}6b/C,{4}1b/Cf,{8}5,4,3,2,
{4}1-5[8:1],8,7<4[8:1],2,
3-8[8:1],5,6<1[8:1],3,
{8}2,2,8,8,{32}1,2,3,4,5,6,7,8,1,2,3,4,5,6,7,8,
{1}1s5[8:5],
{4}Cf/B8/B1/B2/B7/E7/E3,{8}4/6,{16}3,5,,2,,,{8}8/1>6[4:1],7,
{4}1,{8}7b,{16}1,1,,8,,,2z6[4:1],4,,,{4}2,
{8}7,1,{16}8h,8h,8h,8h,{8}8h,8h,
{16}2-5[8:1],1,,,{8}2,{16}6,6,,4,,7,{8}5,{16}3,4,
{4}B2f/B1/E2,{8}7/8,{16}6,5,,5,,,{8}6/4>7[4:1],7,
{4}4,{8}6b,{16}4,5,,5,,,2/4-6v7[4:1],2,,,{4}4,
{8}2,8,{16}1h,1h,1h,1h,{8}1h,1h,
7x,{16}2x,4x,,6x,{8}5x,{2}Cfh[2:1],
{8},,5/6,{16}3,4,,4,,,{8}1/2q4[4:1],8,
{4}2,{8}6b,{16}3,5,,5,,,1/7p5[4:1],1,,,{4}7,
{8}2,4,{16}3h,3h,3h,3h,{8}3h,3h,
{16}5,5bh[8:1],,4,{8}4bh[8:1],{16}5,5bh[8:1],,4,{8}4bh[8:1],{4}Cfh[4:1],
{8},,1/7,{16}2,4,,4,,,{8}5/3-1v7[4:1],5,
{4}3,{8}6b,{16}4,5,,5,,,3/6p7[4:1],3,,,{4}6,
{8}2,8,{16}1h,1h,1h,1h,{8}1h,1h,
7x,{16}2x,4x,,6x,{8}5x,7-3b[8:1],{16}1,1,{4}7w3[8:1],
{8}7,{16},,,,3,4,{4}1-5[8:1],{16}7,7,,,4,
4/6,,,3xq4[4:1],3x,5,5,{4}3,6<3b[4:1],
6,4b,{16}5h,5h,3h,3h,{4}2h[8:1],
{16}6h,6h,4h,4h,{8}7h[8:1],1q5[8:1],8h[8:1],1,{4}Cfh[4:1],
{16},,,,,,6,5,{4}8-4[8:1],{16}2,2,,,5,
5/3,,,6xV41[4:1],6x,4,4,{4}6,2>7b[4:1],
2,8b,{16}1h,1h,7h,7h,{8}2h,2h,
6x,{16}3x,4x,,7x,{8}5x,{2}1s5[4:1],
Ch[2:1],{4}3b-8[8:1],{16}5,5,,,7,
7/1,,,2xpp5[4:1],2x,8,8,{4}2,{8}6V83b[4:1],{16}4,4,
{4}6,4b,{16}5h,5h,4h,4h,{4}7h[8:1],
{16}4h,4h,5h,5h,{4}2h[8:1],8-4b[8:1],8w4[8:1],
8,{16}2-8[8:1],,,4,{4}2,{8}7-4[8:1],1,
{4}7/8,{8}2,{16}5,5,{4}3-5[8:1],{8}3,6,
{4}7-3[8:1],{8}7b,2,{16}4h,4h,3h,3h,{8}5h,5h,
4x,3x/5x,6xp7[8:3]`2xp3b[8:3],6x/2x,{32},,,,,,,,,,,,,,,,2b/8h[4:1],
3,4,5,,,,,,,,,7b/1h[4:1],6,5,4,,,,,,,,,{4}1bp4v2[4:3]/8bq5v7[4:3],
{1},{32}7b/3b,
2/6,1/5,8h[32:5]/4h[32:5],,,,,,,,,1b/5b,6/2,7/3,8h[32:5]/4h[32:5],,,,,,,,,{4}2bpp3>8[4:3]/6bpp8<4[4:3],
{1},{32}1b/2b,
8/3,4/7,5h[32:5]/6h[32:5],,,,,,,,,8b/7b,6/1,2/5,3h[32:5]/4h[32:5],,,,,,,,,{4}6bq1[4:3]/1bq4[4:3],
{16},,,,,,,,,,,,,,,,2b/B4/B5,
,,6b/B1/B8,,,{8}4b/B7/B6,{16},8b/B2/B3,,,{8}1b>8[8:7]/8b<1[8:7],1b/8b,
{32}A8/A1,B8/B1,Cf,B5/B4,{8}A5/A4,,,,,,,{1}Cf/B7/B6/B8/B1/B2/B3/B4/B5,
{4},,,,,,,,,,,5,
4,4,6,6,
3,3,{16}2/1,,,7/8,,,{8}6/5,
4,4,5,5,{16}3,6,3,6,2,7,2,7,
{2}1<6[0.574##0.4327],{8}5,4,3,2,
1b-5[8:1],4,1,7,3-6[8:1],8,3,1,
5-2[8:1],8,5,7,6,6,{4}1>4[8:1]/5<8[8:1],
5qq5[4:1],8,{16}8,7,6,5,8,1,2,3,
{8}7,7,4,4,5,2,{4}4<7[8:1],
3/4,{16}1,2,3,4,{8}8-3[8:1],4-1[8:1],{16},,,,5,
6,7,8,5,4,3,2,{8}7-3[8:1],2-8[8:1],{16},,,,4,
5,6,7,1,2,3,4,8,5,8,5,7,3,7,3,
{32}6,5,4,3,2,1,8,7,{8}6/5-1[8:1],5,7-4[8:1],7,,,8b-4[8:1],
1,2,2,6-3[8:1],1,6,8,
4-7[8:1],1,4,2,3,3,{4}8<5[8:1]/4>1[8:1],
4pp5[4:1],1,{16}1,2,3,4,1,8,7,6,
{8}2,2,5,5,4,7,{4}8>3[8:1],
7/8,{16}8,7,6,5,{8}1-6[8:1],5-8[8:1],{16},,,,4,
3,2,1,4,5,6,7,{8}2-6[8:1],7-1[8:1],{16},,,,5,
4,3,2,8,7,6,5,1,1,4,4,2,2,6,6,
{24}8,1,2,3/4,5,6,1,2,3,5,6,7,2,3,4,5/6,7,8,{4}1b,
{32}2x-6[8:1],,,,,,,8x-3[8:1],,,,,,,{16}5x-1[8:1],{32},,,,,7x-4[32:5],,,,,,,{8}2x-6[8:1],
{16},,,,7q1[4:1],7,5-2b[8:1],5,,,,,,,{8}8,
8/1-4[8:1],,,6,{16}B3,B7,B1,B5,{4}Ch[8:1],
{16}7<4[8:1],8,,8,7,,,2,2,B7,{8}B3,{16}1,,,8,
{32}8b/2bx-6[8:1],,,,,,,8x-3[8:1],,,,,,,{16}5x-1[8:1],{32},,,,,7x-4[32:5],,,,,,,,,,,{8}1,
1h[16:3],{16},3h[16:3],,,5h[16:3],,,7h[16:3],,,{8}2,
{16}8-4[8:1],1,,,{8}8,{16}3,3-1[8:1],,,,3/5,,,,7,
{8}8s4[4:1]/7s3[4:1],,,,,2,{16}2,,,8,
{2}1/8q6[4:1],{4}2,{16}1,,,1,
8,,,8,7,,,7,{4}5-8[8:1]*-2[8:1],5,
{16}7b/3b-1[8:1],,,4,{4}3,{16}7-5[8:1],,,8,{4}7,
{16}3-5[8:1],,,6,{4}3,{16}7-1[8:1],,,2,{4}7,
3b/4bh[4:1],{24}1,2,3,4h[8:1],,,1,2,3,4h[8:1],,,{4}1b,
6b/5bh[4:1],{24}8,7,6,5h[8:1],,,8,7,6,5h[8:1],,,{4}8b,
{12}3,4,3,6,5,6,3,4,2,6,5,7,
3,5,1,6,4,8,{2}4h[4:1]/7h[4:1],
{24}4x/7xs3b[1:2],3x/6x,5x/2xz6[1:2],1x/4x,{1},,,{4},,,{16},{48},{8}3,
3,5,4,6,6,4,7,
1,1,8,2,7,7,2,2,
{4}1/8,{16}1,2,3,4,1,8,7,6,2,3,4,5,
8,7,6,5,8,1,2,3,7,8,1,2,5,6,7,8,
{8}4b,2b/6b,3h[16:1],3/5,7h[16:1],4/7,5b,3b/7b,
{16}6-4b[8:1],4,6,4,,,,,3b,,,5b,,,{8}1b,
5b,7b/3b,6h[16:1],6/4,2h[16:1],5/2,4b,6b/2b,
{16}3,5,3,5,{32}1x,8x,7x,6x,5x,4x,,,{16}7b,5b,7b,5b,6b,4b,6b,4b,
{4}7>3[4:1],3<7[4:1],7>3[4:1],3x<8b[4:1],
8x>5b[4:1],5x<2b[4:1],1x,3b,
{8}3,3,8,8,{16}2,1,3,8,4z8V24[0.2885##1.1538],7,5s1V75b[0.2885##1.0096],6,
,,,,,,,,,,,,,,,,(156){1}E5f/B5/B4/D5/A5/A4,
{8},,,,,,,,,,,,,,,,3/4,
1,6/5,8,2h[4:1],{24}1-5[8:1],8,7,{8}6w2[8:1],1,
{4}6b,{16}8,8,{8}8h[8:1],6h[8:1],{16}4<7[8:1],4,,,{8}4/3,
2v8[8:1],1,{16}7V13-5[4:1],7,,,{4}7/5-7-4-1[4:1],8w4[8:1],
8,{16}3,3,{8}3h[8:1],1h[8:1],{16}8>3[8:1],8,,,{8}8/7,
6v8[8:1],5,{16}1V75-3[4:1],1,,,{4}1/3-1-6-3[4:1],2w6[8:1],
2,3,{16}5/3-1[8:1],,,5,{8}3,5,
8/7v5[8:1],6,{16}4-1[8:1],4,,,{8}4/6,7,2,{16}8,1,
{8}8,8,2,2,4/3,{16}6,7/5,,3,{8}4/2,
2/1,{16}7,8/6,,2,8,1,{4}8z4[4:1],2-6[8:1],
2b,{16}3/4,2,{8}2h[8:1],8h[8:1],{16}5>2[8:1],7,,,{8}5/6,
8-5b[8:1],2/1,{4}7/8>4[4:1],4<8[4:1],8z4[8:1]*v3b[8:1],
{16},,,,5/6,7,{8}7h[8:1],1h[8:1],{16}4<7[8:1],2,,,{8}4/3,
1-4b[8:1],{16}8,8,{4}1>1[2:1],{8}5,5,,2,
{4}2b-5[8:1]*-6[8:1],2,{16}7/4<7[8:1],,,3,{12}4,2,2,
{8}8-5b[8:1],{16}1,1,{4}8<1[4:1],8,{8}8,{16}1,2,
{8}3-8[8:1],{16},,,,7,7,{8}1,{16}6,5,,3,4,3,
5/2,,,6/4,,5,{8}5/7,{4}8w4[8:1],8b,
{8}6-1[8:1],7,3-7[8:1],2,8-4[8:1],{16}1-3[8:1],1,{8}8,1,
5-8[8:1],6,4>4[4:1],3,{4}4,8w4[8:1],
8,{8}6-3[8:1],7,2-5[8:1],{16}1-6[8:1],1,{8}2,1,
3,5,{4}7/1-5-1[4:1],{2}7-3-7b[4:1],
{4}1b-5[8:1],{8}7-4[8:1],8,3-8[8:1],{16}2-6[8:1],2,{8}3,2,
7,5,{4}1/3-1-4-8[4:1],3,7w3[8:1],
7b,{8}2/8,3,4/5,{16}6,6,{8}7/8,1,
{16}2/4,,,5/4,,,{8}5/7,{4}8b/1b,{24}3,4,3,4,{48},{16}2,
{4}7b/1b-3[8:1],{16}1-5[8:1],8,{8}8,1-3[8:1],{16}8,8,{8}1,8,
7-4[8:1]/3-8[8:1],2/6,{4}3-6[8:1]/7-2[8:1],3/7,{8}4/7,2/5,
{4}1/8-6[8:1],{16}8-4[8:1],1,{8}1,8-6[8:1],{16}1,1,{8}8,1,
2/5,{16}4/6,4/6,,,{8}3/8,{16}1bx/6bx,,,2bx/7bxh[16:3],{64},,,,,,,,1bx,8x,,6x,5x,4x,3x,2x,
{4}8b/1b-4[8:1],1b/7b-3b[8:1],7b/5b-2[8:1],{8}5b/7b,7b,
{4}1b/8b-4[8:1],8b/2b>5b[8:1],{16}2b/6b-1[8:1],,,3b,{8}6b,2b,
{4}2b,{8}1b/7b,{16}6,5,4b/7b,,,3b/5b,,2,6,6,
{4}7b/1bq4[8:5],7p5b[8:3],{12},,,,,,3bxh[6:1],
4,4,6bxh[6:1],5,5,2bxh[6:1],3,3,7bxh[6:1],6,6,
{4}1V36[4:1],6V41b[4:1],1>6[4:1],6,
{12}7bxh[6:1],8,8,2bxh[6:1],1,1,7bxh[6:1],5,5,2bxh[6:1],4,4,
{4}3V17[4:1],7>4b[4:1],4p7[4:1],7,
{12}6bxh[6:1],5,5,4bxh[6:1],5,5,3bxh[6:1],4,4,5bxh[6:1],4,4,
{4}3>7[4:1],7<3b[4:1],3p1[4:1],7,
{6}8h[12:1],7h[12:1]/1h[12:1],6h[12:1]/2h[12:1],1h[12:1],8h[12:1]/2h[12:1],3h[12:1]/7h[12:1],
{1}Cfh[1:1],
(234),
,,,4,
,4,
{2}4,{4}4,5,
{16}E3,B3,{8}B4,{16}B8,B7,{8}E7,{16}B1,B2,{8}E3,{16}E7,B6,{8}B5,
{16}E2,B2,{8}B3,{16}B7,B6,{8}E6,{16}B3,B4,{8}E5,{16}E1,B8,{8}B7,
{16}B5,B4,{8}E4,{16}E8,B8,{8}B1,{16}E3,B3,{8}B4,{16}B8,B7,{8}E7,
{16}B2,B3,{8}E4,{16}E8,B7,{8}B6,{16}E3,B3,{8}B4,{16}B8,B7,{8}E7,
{4}4,4,4,4,
6,6,6,6,
{8}3/5,3,6/4,6,3/5,2,4/6,7,
{16}1,8,1,8,1,8,1,8,1,8,1,8,{4}1-5-1b[4:1],
{8}1/7,7,8-4[8:1],2,8,{16}3,5,{4}2-6-2b[4:1],
{8}2/8,8-5[8:1],,8,{16}3bh[16:3],,,5bh[16:3],,,{8}1bh[8:1],
7b,7bz3[4:1]/8b-4[4:1],,,,,2b,2b,
8b,8b,{32}1,8,7,6,5,4,3,2,{16}8b/1b,,,2b/C,,,{8}7b/C,
C/1w5[8:1],1b,,,{2}3/7,
{8}2b-5[8:1]/6b-1[8:1],6b/2b,{16},,,,8b/C,,,2b/C,,,{8}6b/C,
4bx/5bx,5bx/4bx,{16}3x,6x,2x,2x,7h[8:1]/1h[8:1],,,1h[8:1]/7h[8:1],,,{8}8h[16:1]/2h[16:1],
{16}3h[8:1]/5h[8:1],,,5h[8:1]/3h[8:1],,,{8}4h[16:1]/6h[16:1],{16}5bxh[8:1]/7bxh[8:1],,,7bxh[8:1]/5bxh[8:1],,,{8}1bx/8bx,
{1}1bx/Cf,
,,{16}6,
,,3,{8}4,6,{16}1-5[8:1],7,3,5,{4}1,
4-1[4:3],6,6,6,
5-8b[4:3],3,3,3,
{16}2,3,4,5,6,7,8,1,{32}2x,3,4,5,6,7,8,1,2-6b[8:1],3,4,5,6,7,8,1,
{8}2,{16},,,,3,5,1-5[8:1],,,8,{8}1,7,
{16}6/4<7[8:1],,,3,{8}4,2,{16}8,8/1,,2,8,7,6,5,
4/3-6[8:1],,,5,{8}3,7,{16}1,8/1,,7,1,2,3,4,
6/5-8[8:1],,,4,{8}5,3,{16}2>5[8:1],1,,1,{8}2,8,
{16}6/7>2[8:1],,,4,{8}7,3,8b,{16}2,1/3,,6,{8}5/7,
{16}3b/8b-4[8:1],,,1,{8}8,2,5/3,{16}6-3[8:1],6,{8}4,6,
{16}2>5[8:1],,,1,{8}2,8,7/3,{16}6,5,{8}6,7/4,
{16}3-8[8:1],,,4,{8}3,5,1/6,{16}7,8,{8}7,6/1,
1-5[8:1],{16}8,2,{8}1,3,{16}4,6,4,6,3,7,3,7,
2/8<5[8:1],,,1,{8}8,2,{16}4,4/3,,2,4,5,6,7,
8/1>4[8:1],,,8,{8}1,7,{16}5,5/6,,,{8}4/7,6/3,
5/2,{16}3,4,{8}3,2/6,{16}7,8,,2,{8}1-5[8:1],2-6[8:1],
1,2,{16}7,5,{8}7,{16}6b/4b-1[8:1],,,5b,{8}4b,7b,
{16}2b/8b-4[8:1],,,1,{8}8,2,5/3,{16}6-3[8:1],6,{8}4,6,
{16}2>5[8:1],,,1,{8}2,8,7/3,{16}6,5,{8}6,7/4,
{16}3-8[8:1],,,4,{8}3,5,{16}1/7<4[8:1],,,8,{8}7,1,
{16}2bx,3bx,2bx,3bx,2bx,3bx,2bx,3bx,2bx>5[8:1],,,8,{8}2,7,
{4}Cf/B7/B3/B5/B1,{8}6/4,7,{16}1,2,3,4,1,8,7,6,
5/4-1b[8:1],,,6,{8}4,7,{16}8,7,6,5,8,1,2,3,
{4}4/6,{16}7-1-4-8[8:3]/3-5-8-4[8:3],2/6,1/5,4/8,{2}3/7,
{8}7-3b[8:1],1-5b[8:1],7,1,{16},,6,4,{8}8,8,
{24}2-5-8[4:1],3,4,5h[8:1],,,,,,,,,2-5-8[4:1],3,4,5h[8:1],{48},,,,,,,,,,,,,,,,{16}1,
7,{8}1,2/6,4/8,{16},,3,5,{8}1,8,
{32}2b-5[8:1],3,4,5,6v1b[8:1],7,8,1,{8}2b,6b,,7b-4[8:1]/3b-8[8:1],,3b-6-1-4[8:5]`7b-2-5-8b[8:5],
,,,,,,,,3/7,
{16}2,1,{8}2,8,{16}2-5[8:1],1,,1,{8}2,8,
4/7,{16}6,5,{8}6,4,5-8[8:1],3-5[8:1],5,3,
{4}7bh[2:1],{24}8,1,2,3,4,5,{4}6bh[4:1],{24}7,8,1,2,3,4,
{16}5b<8[8:1],,,4,{8}5,3,{4}1-5[8:1],{8}1,{16}7,7,
{2}6/4h[2:1],{8}B7/B6,,,2,
,8,{4}8,7v4[8:1]/1v4[8:1],7/1,
{8}3/5,5/3,2/6,2/6,{16}1,7,1,7,8-5[8:1],8,8,8,
{8}8b,{16},,,,3,4,{8}5b/2b,4b/7b,,3b/6b,
{1}8b-6-4-2-8-5-3-8b[2:7]`1b-7-5-3-1-6-4-1[2:7],
{4},,,,,,,,,,,,1-5[8:1],
8,7<4[8:1],2,
3-8[8:1],5,6<1[8:1],3,
{8}2,2,8,8,{32}1,2,3,4,5,6,7,8,1,2,3,4,5,6,7,8,
{1}1s5[8:5],
{16}6b/3b-8[8:1],,,5,3,,,7,{8}7-3[8:1],1,{4}7/1>7[4:1],
1,{16}8b,,,1,{4}1-5[8:1],1/7s3[4:1],
7,4,{16}5h,5h,5h,5h,{8}5h,5h,
{4}3-8[8:1],{16}3/5,,,7,{8}7,1,{4}1/8b-4[8:1],
8b,{16}2,,,5,{4}3<6[8:1],3/7p5[4:1],
7,{16}4,,,6,{4}5-1[8:1],5/7<4[8:1],
7,{8}2,8,{16}1h,1h,1h,1h,{8}1h,1h,
7x,{16}2x,4x,,6x,{8}5x,{4}8-4[8:1],8/1,
{16}3h[8:1]/5h[8:1],,,3h[8:1]/5h[8:1],,,{8}4h[16:1]/6h[16:1],{16}7h[8:1]/1h[8:1],,,7h[8:1]/1h[8:1],,,{8}8h[16:1]/2h[16:1],
{16}3h[8:1]/4h[8:1],,,4h[8:1]/3h[8:1],,,{8}5h[16:1]/2h[16:1],{16}6h[8:1]/1h[8:1],,,1h[8:1]/6h[8:1],,,{8}7,
{4}8b/2b>5[8:1],{16}2,,,7,{4}6-1[8:1],6/4>7[4:1],
4,{16}6b,,,4,{4}5-8[8:1],5/3,
{16}7h[8:1]/1h[8:1],,,7h[8:1]/1h[8:1],,,{8}8h[16:1]/2h[16:1],{16}3h[8:1]/5h[8:1],,,3h[8:1]/5h[8:1],,,{8}4h[16:1]/6h[16:1],
{16}7h[8:1]/8h[8:1],,,8h[8:1]/7h[8:1],,,{8}1h[16:1]/6h[16:1],{16}2h[8:1]/5h[8:1],,,5h[8:1]/2h[8:1],,,{8}3,
{4}3/4<7[8:1],4,{16}2h,2h,8h,8h,{8}1h,1h,
{4}2-5[8:1]/8-4[8:1],8/2,{2}Cfh[2:1],
{8}1-4[8:1],1-6[8:1],1,1,{16}3-8[8:1],3,{8}5-1[8:1],3,5,
{16}2-5[8:1],2,{8}8-4[8:1],2,8,2,{24}7,6,5,{8}4/3,3,
1/6,1/6,2/7,2/7,{16}1,8,1,8,{8}2,{32}8b,7,6,5,
{8}4/3,3/4,6/1,6/1,{16}2b/7b,,,3b/6b,,,{8}1b/8b,
{16}2,2,8,8,3,3,6,6,1,1,7,7,{24}8,8,8,8,8,8,
{32}1b/7b,2/6,3/5,4,,,,,{16}3,3,7,7,{8}2/8,{32}2b/8b,3/7,4/6,5,,,,,2,3,4,5,
6,7,8,1,2,3,4,5,{8}6/7,{32}3,4,6,5,3,4,6,5,3,4,6,5,{16}2,2,7,7,
1,8,1,8,1,8,2,7,8b/1b,,,6b/4b,,,{8}3b/7b,
{1}1bq3>7b[4:31]/5bq7<3b[4:31],
E
