&title=のんびり彼氏とおてんば彼女
&artist=40mP
&first=0.355
&des=Ragna
&wholebpm=134
&demo_seek=37.3
&demo_len=18
&des_5=Ragna
&lv_5=13
&inote_5=(134){4}
3h[4:1],4,2^5[12:1]/5,,
6h[4:1],5,7^4[12:1]/4,,
2h[4:1],1,3^8[12:1]/8,,
7h[4:1],8,6q4[8:1]/1,,{8}
3h[4:1],4,6h[4:1],5,3h[4:1],4,6h[4:1],5,
2h[4:1],1,7h[4:1],8,2h[4:1],1,7h[4:1],8,
2h[4:1],4,7h[4:1],5,2h[4:1],4,7h[4:1],5,
3h[4:1],1,6h[4:1],8,3p5[8:1],,,,{16}
74,,6,5,6,,3,4,3,,28,,17,,6,5,
6,,3,4,3,,6,5,6,,17,,28,,3,4,
2,,6,5,7,,3,4,2,,18,,26,,7,5,
6,,2,4,3,,7,5,6,,34,,12,,78,,
15,,2,4,2,,7,5,7,,83,,16,,2,4,
2,,7,5,7,,2,4,2,,16,,53,,7,5,
8,,2,4,1,,7,5,8,,73,,25,,1,4,
3,,8,5,6,,1,4,3,,65,,73,,,,{8}
2h[8:3]/1,8,7,6,5h[8:3]/4,3,2,1,
7h[8:3]/8,1,2,3,4-1[12:1]/5-8[12:1],36,,,
7h[8:3]/8,1,2,3,4h[8:3]/5,6,7,8,
1h[8:3]/2,2,2,2,4h[8:3]/5,5,5,5,
{32}1,2,3,4,5,6,7,8,1,2,3,4,5,6,7,8,{8}1b/5b,,,,
3h[4:1],1,4h[4:1],8,3h[4:1],1,5h[4:1],8,
4h[4:1],8,{16}5,6,{8}7,1-4[12:1]/8-5[12:1],27,,,
6h[4:1],8,5h[4:1],1,6h[4:1],8,4h[8:1],3h[8:1],
2h[8:1],1h[8:1],8h[8:1],7p6[4:1],,,,,
2h[4:1],4,1h[4:1],5,2h[4:1],4,8h[4:1],5,
1h[4:1],5,{16}8,7,{8}6,5-8[12:1]/4-1[12:1],36,,,
7h[4:1],5,8h[4:1],4,7h[4:1],5,1h[8:1],2h[8:1],
3h[8:1],4h[8:1],5h[8:1],6q7[4:1],,,,,
{4}2h[4:1],4,1>5[8:1]/5,,7h[4:1],5,8<4[8:1]/4,,
3h[4:1],1,4>8[8:1]/8,,7h[4:1],6h[4:1],5h[4:1],4h[4:1],
2h[4:1],3h[4:1],4h[4:1],5h[4:1],8h[4:1],6h[4:1],4h[4:1],2h[4:1],
{1}8qq5[8:5],8qq4[8:5],8qq3[8:5],8qq2[8:5],
4qq1[8:5],4qq8[8:5],4qq7[8:5],4qq6[8:5],
{8}8h[4:1],,1,27,,34,25,16,
{16}7,8,7,8,6,1,6,1,5,2,5,2,4,3,4,3,
{8}5bq2[8:1],,,4b>5[16:5],,,,,
8bp3[8:1],,,1b>8[16:5],,,,,
{16}5,,5,,1,6,,3,8,,8,,4,5,,,
{8}3-8[12:1]/6-1[12:1],,,,4-8[12:1]/5-1[12:1],,,,
2b/7b,,3^1[12:1]/6,4,6^8[12:1]/3,5,3^1[12:1]/6,4,
6^8[12:1]/3,5,{16}63,4,{8}5,1-5[12:1]/2-5[12:1],38,,,
6^8[12:1]/4,5,4^2[12:1]/6,5,6^8[12:1]/4,5,4^2[12:1]/6,5^7[12:1],
4v1[12:1],5v8[12:1],4,5p4[4:1],,,,,
2^4[12:1]/7,1,7^5[12:1]/2,8,2^4[12:1]/7,1,7^5[12:1]/2,8,
2^4[12:1]/7,1,72,8,5-1[12:1]/6-1[12:1],74,,,
2^4[12:1]/8,1,8^6[12:1]/2,1,2^4[12:1]/8,1,8^6[12:1]/2,1^3[12:1],
8v5[12:1],1v4[12:1],8,1p8[4:1],,,,,
{1}5bw1[8:11],
,
{16}12,,38,,74,,6,5,6,,71,,28,,3,4,
3,,65,,7,8,7,8,7,,2,1,2,,5,4,
5,,36,,27,,8,1,7,,68,,54,,3,4,
2,,18,,75,,54,,3,1,2,,7,8,6,,
45,,24,,18,,7,5,6,,45,,24,,1,7,
8,,65,,3,4,2,5,1,,7,8,6,,4,5,
{2}3b<3[8:7]/6b>6[8:7],,
,4b/5b,
E
