&title=バッドビートベイビー
&artist=La priere
&first=0.05
&des=zaban
&clock_count=4
&lv_5=13+
&inote_5=(128)
{1},,
{8}1bxh[8:2]/8x,,{48}E3,B3,,,,,,,,,,,
{8}6h[8:2],,{48}B4,E5,,,,,,,,,,,
{8}2h[8:2],,{48}E3,B3,,,,,,,,,,,
{8}6h[8:2],,{48}B4,E5,,,,,,,,,,,
{8}3h[8:2],,{48}E3,B3,,,,,,,,,,,
{8}6h[8:2],,{48}B4,E5,,,,,,,,,,,
{8}4x-2[8:1]*v6[8:1],,,,{8}4x-1[8:1]*v7[8:1],,,,
8x/2x^3-6^7-2[8:4],,,,,,E1,,
3-1[8:1]/4,,4,,1-5[8:1]/5h[8:1],,6h[8:1],,
7h[8:1]/5h[8:1],,6h[8:1]/4h[8:1],,5h[8:1]/3,3,4h[8:1]/2qq7[8:4],2,
,,,,5w1b[8:1],,Cf,,
{24}3bh[8:1]/7bh[8:1],,,,,,2,,2,4,,,3h[8:1]/4h[8:1],,,,,,7,,7,5,,,
6h[8:1]/5h[8:1],,,,,,1,,1,8,,,8h[8:1]/3h[8:1],,,,,,1h[8:1]/6h[8:1],,,,,,
4qq4[16:3]*pp4[16:3],,,1/7,,,,,,,,,5x^2b[16:2],,5x^8[16:2],1x,,,,,,,,,
4h[8:1],,8,1,,,6h[8:1],,1,8,,,2qq7b[8:2],,8,1,,,5h[8:1],,,,,,
6,,,81,,,2,,2,4,,,65,,,78,,,6,,6,4,,,
1V38[16:3]/3,,,7/5V74[16:3],,,,,,,,,2x-5[8:1],,,2x^7[8:1]*^7[8:1],,,2xp8b[8:2],,,,,,
,,,,,,7,,,6,,,18,,,{16}2,2v3-5[8:2],,,5,,
{24}E8f,,,,,,6,,6,4v5[8:1],,,7/2qq7[8:2]*qq7[8:2],,,,,,,,,,,,
{8}4x<8[8:2],,8x>4[8:2],,4x^6^8[8:2],,8x^2^4[8:2],,
4x^5^6^7^8[8:2],,8x^1^2^3^4[8:2],,4x^5^6^7^8[8:2],,C,,
5xh[8:7],A7,E6,E8,B4,B1,A3,E2,
2xq1b[8:3]/5xq8b[8:3],,,,,,3h[8:8],,
E3,,E5,,E7,,E1,,D3,,D5,,D7,,D1,,
2-4[8:1],,4qq5[8:3],,5^7[8:1],,,,E7,,E8,,E1,,
1/8-4[8:1]*-4[8:1],,{32}8b/2x-7b[16:2],3-8[16:2],4x,5,,,,,2x/3x,,,,,,,,
{24}2,,2,5,,5,4h[8:1],,,8,,,
{16}17,,2,13,,7,68,,{64}4x-7[8:1]*-6[8:1]/5,D4,A3,D3,A2,D2,A1,,,,,,,,,,
{16}4qq5b[8:2],,,,4b/5b,,,,7,,7xh[8:1],,{24}5,,5,6,,6,1,,,28,,,
{8}3-5b[8:1],2,7-3b[8:1],8,1bh[8:1],,
8/1-5[8:1]*-5[8:1],,{32}1b/7x-2b[16:2],6-1[16:2],5x,4,,,,,7x/6x,,,,,,,,
{24}7,,7,4,,4,5h[8:1],,,1,,,
{16}82,,7,86,,2,31,,{64}5x^2[8:1]*-3[8:1]/4,D6,A6,D7,A7,D8,A8,,,,,,,,,,
{16}5pp6^4b[8:2],,,,5b/4b,,,,2,,2xh[8:1],,{24}4,,4,3,,3,8,,,71,,,
{8}65,54,43,23,1bs5[16:3]/2bv3-5[16:3],,,,
{24}6h[8:1],,,8,,,5h[8:1],,,8,,,7-1[12:1],,7,4-7[12:1],,4x,,,,,,,
8h[8:1],,,5,,,7-1[12:1]*-4[12:1],,7,5,,,7p6[16:3],,,,,,4,,,,,,
3h[8:1],,,1,,,4h[8:1],,,1,,,2-8[12:1],,2,5-2[12:1],,5x,,,,,,,
1h[8:1],,,4,,,2-8[12:1]*-5[12:1],,2,4,,,2s6[16:3],,,,,,8,,,8,,,
75,,,8,,,45,,,1,,,4-8[8:1],,4,2-4[12:1],,2,,,,,,,
1h[8:1],,,3,,,4-8[8:1]*-2[8:1],,4,2,,,4q5[16:3],,,,,,6,,,,,,
31,,,4,,,81,,,5,,,8-3[8:1],,8,6-8[12:1],,6,,,,,,,
5h[8:1],,,7,,,8-3[8:1]*-6[8:1],,8,6,,,8z4[16:3],,,,,,1,,,,,,
3qq6[8:4],,,,,,E2f/B2/B1,,,,,,,,,,,,8b,,,,,,
{24}6bh[8:1]/2bh[8:1],,,,,,6,,6,8,,8,7h[8:1],,,5x,,,2,,2,8,,8,
E2,E3,E4,E8,E7,E6,A2,A3,A4,A8,A7,A6,1,,1,8,,,2-6[8:1],,,43,,,
2,,,8,,,2q6[8:1]*p6b[8:1],,,43,,,2,,,,,,84,,,7,,,
6,,6,5,,5,8,,8,4,,4,1-6[8:1]/3^8[8:1],,,,,,3qq6b[8:4]/1,,,,,,
,,,,,,,,,,,,8h[8:3],,,,,,6,,,4,,,
{16}2h[8:1],,4,3,8h[8:1],,5,6,4,,12,,8^5[8:1],,5^2[8:1],,
1x,,,,1-4[8:1],,4-8[8:1]*-7b[8:1],,1bx,,,,,,1,,
{24}3qq6b[8:3]/5h[8:1],,,,,,7h[8:1],,,,,,8xh[8:2],,,,,,
{48}D7b,D6b,D5b,D4b,D3b,,,,,,,,
{24}1bxh[16:2]/8bx,,,8,,1,1h[24:6],,,B3/E4,,,,,81,,,1h[24:4],,,,E4/B3,,,
1h[16:2]/8,,,8,,1,1h[24:6],,,B3/E4,,,,,81,,,1h[24:4],,,,E4/B3,,,
2bxh[16:2]/4bx,,,8,,1,1h[24:6],,,B3/E4,,,,,81,,,1h[24:4],,,,E4/B3,,,
8h[24:2]/1,,,8h[24:2]/1,,,8h[24:2]/3,,,8h[24:2]/5,,,8bxh[8:2]/7,,,,,,
{48}D7b,D6b,D5b,D4b,D3b,,,,,,,,
{24}1bxh[16:2]/8bx,,,8,,2,2h[8:1]/4,,,6,,,4,,8,1,,6,4h[8:1],,,3,,,
8h[16:2]/1,,,1,,7,7h[8:1]/5,,,3,,,5,,1,8,,3,5h[8:1],,,7,,,
{16}64,,53,,2x/4x,,1x/3x,,7bx/8bx,,4bx/5bx,,{24}2,4,3,6,5,7,
Ch[8:4],,,,,,,,,,,,
{8},,1/8-4[8:1]*-4[8:1],,{96}8b/2xV86b[16:2],Cf,,{32}3V17[16:2],4x,5,,,,,2x/3x,,,,,,,,
{24}2,,2,5,,5,4h[8:1],,,8,,,
{24}17,,7,5,,5,4^1[8:1],,4,2,,,{64}4xV68[8:1]*-7[8:1],D4,A3,D3,A2,D2,A1,,6,,,,,,,,
{16}4-1^2-5b[8:2],,,,4b/5b,,,,7,,7xh[8:1],,{24}5,,5,4,,4,1,,,28,,,
{8}3-5[8:1]/7-4[8:1],2,7^2[8:1]/3^8[8:1],,37,,
{8}8/1-5[8:1]*-5[8:1],,{96}1b/7xV13b[16:2],Cf,,{32}6V82[16:2],5x,4,,,,,7x/6x,,,,,,,,
{24}7,,7,4,,4,5h[8:1],,,1,,,
{24}82,,2,4,,4,5^8[8:1],,5,7,,,{64}5x-3^2[8:1]*-2[8:1],D6,A6,D7,A7,D8,A8,,3,,,,,,,,
{16}5v8^6-4b[8:2],,,,5b/4b,,,,2,,2xh[8:1],,{24}4,,4,5,,5,8,,,71,,,
{16}65,,54,,43,,12,,{32}8b/Cf,7,6,5,,,,,2b/E1f,3,4,5,,,,,
8b,7,6,5,4,3,2,1,8,7,6,5,4,3,2,1,8pp7b[8:2],7,6,5,4,3,2,1,8,,,,,,,,
{24}3,,,2h[8:1]/4,,,8,,8,1,,1,7^2[8:1]*^4[8:1],,,5,,,7,,,,,,
4h[8:1]/3,,,1,,,6/5h[8:1],,,8,,,2,,2,4,,4,5,,,65,,,
3,,,2h[8:1]/4,,,8p4[8:1],,8,2-7[8:1],,,8q1[16:3],,,2,,,,,,,,,
8bhx[8:1]/2bx,,,5,,,7/1h[8:1],,,4,,,6,,6,8,,8,1,,,13,,,
7,,,6h[8:1]/5,,,1,,1,8,,8,24,,,54,,,78,,,54,,,
1h[8:1]/2,,,4,,,7/8h[8:1],,,5,,,3,,3,1,,1,8,,,86,,,
2,,,3h[8:1]/1,,,5,,5,4,,4,8z4[16:3],,,1,,,2,,,3,,,
6x-2[8:1],,,,,,{96}6xp4[8:4]*pp3b[8:4],E5f,,,,,,,,,,,,,,,,,,,,,,,
