&title=Unwelcome School
&artist=Mitsukiyo
&first=0.33
&des=HL
&lv_5=13+
&inote_5=(180)
{1}
{4},,,1,2,3h[4:1],,5,6,{8}7,{16}8,8,,,,,
{8}1,1,7,7,2,2,6,6,45,3,45,6,4-1[8:1]/5-8[8:1],,,,
{4}7,6,5h[4:1],,{8}4,4,6,6,3h[8:1],{16}8,8,,,,,
{8}12,3,,78,1,2,3,4,45,6,4>5[4:1]/5p4[4:1],
3,45,,,,
{8}4h[8:1]/5h[8:1],,6h[8:1]/5h[8:1],,7h[4:1],,8,,
{8}12,3,54,6,78,{16}1x/2x,1xh[8:1]/2xh[8:1],,,,,
{8}4-2[8:1],4,5-1[8:1],5,4>2[8:1],5,6,7,1-5[8:1]/8,2,1/8-4[8:1],7,18,,2b/7b,,
{8}5h[8:1]/4h[8:1],,3h[8:1]/4h[8:1],,2h[4:1],,1,,
{8}87,6,45,3,21,{16}8x/7x,8xh[8:1]/7xh[8:1],,,,,
{8}56,4,56,7,56,3,56,8,28,5,71,4,2b/7b,3,4,5,
{8}6-1[8:1],5,6,,3-8[8:1],4,3,,8x/7,6,45,3,12,{16}8x/7x,8xh[8:1]/7xh[8:1],,,,,
{8}1-7[8:1],1,6-2[8:1],6,3-5[8:1],3,6-2-7-4-1-5b[8:5],6,,,,,,,2b/7b,,
{8}1-3[8:1]/8-6[8:1],27,18,,4-7[8:1]/5-2[8:1],36,45,,18,2,34,5,67,{16}8x/1x,8xh[8:1]/1xh[8:1],,,,,
{8}2-6[8:1],2,7-3[8:1],7,1-5[8:1],1,8,8,2-6[8:1]/1,3,1-5[8:1]/2,8,12,,3b/8b,,
{8}45,5,35,5,25,5,15,5,18,1,17,1,16,1,15,1,4xv2b[8:1]/5x-2b[8:1],,4x-7b[8:1]/5xv7b[8:1],,4x-2[8:1]b/5x-2[8:1]b,,4x-7b[8:1]/5x-7b[8:1],,4xv2b[8:1]/5xv2b[8:1],,4xv7b[8:1]/5xv7b[8:1],,4x-2[8:1]b/5x-2[8:1]b,,,,18,8,28,2,27,7,73,3,45,6,57,4,35,6,27,27,1x-3b[8:1]/8xb-4[8:1],,1x-5[8:1]b/8xb-6[8:1],,1x>2[8:1]b/8xb-3[8:1],,1x-6[8:1]b/8xb<7[8:1],,1x-4[8:1]b/8xb-3[8:1],,1x-6[8:1]b/8xb-5[8:1],,1xv4[8:1]b/8xb-4[8:1],,,,
{8}5x/6x,7,18,2,34,5,34,2,18,7,56,4,23,4,5x,6x,
{8}7/6x-3[8:1],7,7/6,7,7/6xp2[8:1],7,7/6,7,7/6xp4>1[4:1],7,7/6,7,8<5[8:1],1x,2,,
{8}1>2[8:1]/8,8,1-3[8:1]/8,8,1-4[8:1]/8,8,18,,
1/8<7[8:1],8,1/8-6[8:1],1,1/8-5[8:1],1,18,1,18,,
{8}B6,B3,E6,E4,{16}B7,,B1,B2,B3,,E5,,E4,,{8}E2,E8,A6/B6/E6,B5/B4/E5,A3/E3/B3,
{1}Chf[2:7],,,,
{8}B7/B8,,B3/B4,,B1/B2,,B5/B6,,E1,E2,E3,E4,{16}E5,B6,B7,E8,{8},,
{8}1,2,8,7,3,4,6,5,45,45,36,36,2-5[8:1]/7-4[8:1],,27,,
{8}3-1[8:1],,3,,6-8[8:1],,6,,4-1[8:1],4,5-8[8:1],5,1,{16}2,2h[8:1],,,,,
{8}18,7,65,4,23,1,78,6,4,4,5,5,3-7[8:1]/6-2[8:1],,36,,
{8}1-3[8:1]/8-3[8:1],,1-6[8:1]/8-6[8:1],,1-5[8:1]/8-4[8:1],,,,
{8}36,2,18,7,36,{16}45,4h[8:1]/5[8:1],,,,,
{16}3,4,3,4,2,5,2,5,1,2,3,4,5,6,7,8,{32}1,2,3,4,5,6,7,8,1,2,3,4,5,6,7,8,1,2,3,4,5,6,7,8,1/5,,,,,,,,
{16}3,4,5,6,3,4,5,6,3,4,5,6,3,4,5,6,3,4,5,6,7,8,1,2,5,4,3,2,1,8,7,6,
{16}4,5,4,5,3,5,3,5,2,5,2,5,1,5,1,5,{8}84,84,15,15,2bv3[8:1]/6bv7[8:1],,,,
{16}1,8,1,8,1,8,1,8,1,8,1,8,1,8,1,8,2,3,7,6,2,3,7,6,3,4,6,5,3,4,6,5,
{8}3>2[8:1]/4,4,3-1[8:1]/4,4,3-8[8:1]/4,4,34,4,34,25,16,78,{32}18,2,3,4,5,6,7,8,
{16}15,,,,
{16}2,1,2,1,2,,18,,7,,56,,4,,56,,3,4,2,4,3,4,2,,6,5,7,5,6,5,7,,
{16}2,3,4,5,8,7,6,5,1,2,3,4,7,6,5,4,A1,A2,A3,A4,{24}B8,B7,B6,B5,B4,,1,2,3,4,5,,{16}8,7,6,5,
{16}3,4,2,5,3,4,2,5,1,3,2,4,3,5,4,6,45,,3,4,25,,6,5,{8}74,3,2,1,
{8}18,12,23,34,45,56,67,78,18,18,18,18,1h[4:1]/8h[4:1],,,,
{8}45,5,35,3,36,6,62,2,18,7,86,1,28,7,36,36,4x-2b[8:1]/5xb-1[8:1],,4x-8[8:1]b/5xb-7[8:1],,4x>3[8:1]b/5xb-2[8:1],,4x-7[8:1]b/5xb<6[8:1],,4x-1[8:1]b/5xb-2[8:1],,4x-7[8:1]b/5xb-8[8:1],,4xv1[8:1]b/5xb-1[8:1],,,,
{8}7-3[8:1]/8,6,7/8-4[8:1],1,7-3[8:1]/8,6,78,1,
{8}1/2-6[8:1],3,1-5[8:1]/2,8,1/2-6[8:1],3,12,8,
{4}1xb>2[8:1]/8xb-2[8:1],1xb-7[8:1]/8xb<7[8:1],1xb-3[8:1]/8xb-3[8:1],1xb-6[8:1]/8xb-6[8:1],1xb-4[8:1]/8xb-4[8:1],1xb-5[8:1]/8xb-5[8:1],1xb/8xb,2b/7b,
{8}46,3,46,7,1p4[8:1]/8q5[8:1],27,18,,2/4x,1,24,5,46,7,8,1,
{8}2/3-6[8:1],2,2/3,2,2/3q7[8:1],2,23,2,2/3q5<8b[4:1],2,23,2,1>4[8:1],8x,7,,
{8}8<7[8:1]/1,1,8-6[8:1]/1,1,8-5[8:1]/1,1,81,,
8/1>2[8:1],1,8/1-3[8:1],8,8/1-4[8:1],8,81,8,81,,
{8}3,4,5,6,{16}7,,1,8,{8}1,2,3,4h[4:1],,5,4-2[8:1]/5-7[8:1],,4b/5b,,
{8}1h[128:1],1h[128:1],8h[128:1],8h[128:1],2h[128:1],6h[128:1],4h[128:1],4h[128:1],5h[128:1],5h[128:1],,,E
