&title=Tricky Treat!!! (Game Size)
&artist=大空直美; 久保ユリカ; 石見舞菜香
&first=0.41
&des=baiqieji
&lv_5=13+
&inote_5=(90)
{4}
4v5[8:6]/5q4[8:6],,,,
,2v7[8:3]/6v3[8:3],,,
(128)
{16}
1,2,3,4,5,6,7,8,
1w5[8:1],,,,1b,,,,2-8[8:1],,3,,24,,5,,
3-8[8:1],,4,,35,,6,,7-3[8:1],,1,,2,,,,
6-4[8:1],,7,,68,,1,,7-3[8:1],,8,,17,,2,,
14,,3,,5-8[8:1],,6,,5,,,,
{24}3h[8:1]/4,,5,,,,7h[8:1]/8,,1,,,3,4h[8:1],,,1,,,2,,2,4,,,
6,5,6,5,,,3,,3,4,,4,2h[8:1],,,8,,,26,,,
(192)
{16}
3b<6[4:1],,,,,,,,7bp2[4:1],,,,,,,,1bp8[4:2],,,,,,,,6,,,,5,,,,
3b-1[8:1],,,,1,,,,6-8[8:1],,,,8,,,,4-8[8:1],,,,8,,,,5-1[8:1],,,,1,,,,
3V52[4:1],,,,6b,,,,7,,7,,1,,2,,
34,,5,,4-8[8:1]/3,,2,,34,,,,
6V47[4:1],,,,3b,,,,2,,2,,8,,7,,
65,,4,,5-3[8:1]/6,,7,,5/6-2[8:1],,,,2,,,,4b,,,,
3>1[8:1]/7-5[8:1],,,,3b/7b,,,,7,,7h[8:2],,{16}8,1,2,3,
{12}
5,4,6,4,5,5,3-7[8:1],,,2,,,
1,8,2,7,7,1,6-2[8:1],,,7,,,
8,1,6,3,3,4,2-6[8:1]*-5[8:1],,,2,,,
{8}
1p5[8:1]/8<6[8:1],,18,,1>3[8:1]/8q4[8:1],,18,,8b,,
7-5[8:1]/5-3[8:1],,5V71[4:1],,1V37[4:1],,4,,
4q1[4:1],,1q5[4:1],,5,,
,,{12}4,5,3,{8}4V62[4:1],,2V86[4:1],,
4qq5[8:3],,4,,7,,8bz4[4:1]/1bs5[4:1],,,,
,,{12}6,,6,{8}5p8[4:1],,8p3[4:1],,5,,
6<1[8:1],,65,,
{12}2,,2,,2,,34,,5,,5,,6h[12:4]/4,,8,,2,,3h[12:4]/4,,1,,7,,
{16}
1h[384:1],8h[384:1],1h[384:1],8h[384:1],1h[384:1],8h[384:1],1h[384:1],8h[384:1],
(128)
1-5[8:1],,,,1>4[8:1]*<6[8:1],,,,1w5[8:1],,,,1b,,,,
{32}
3,,3,4,,4,2,,6,,6,5,,5,7,,{16}4h[8:1],,8,8,,{32}26,,{32},,4,,{24}
7,5,7,5,,,2,4,2,4,,,{8}8h[8:1]/2,5,1h[8:1]/7,4,
{12}1,8,2,7-3[12:1],8,5,7,,,8,1,7,1-5[12:1],8,3,{8}1,
{32}2,,2,4,,4,3,,7,,7,5,,5,6,,3h[8:1],,,,8,,27,,{32},,6,,4,,5,,{24}
2,4,3,4,,,7,5,6,5,,,{8}2h[8:1]/8,4,7h[8:1]/1,5,
{12}
4,5,5,4-8[12:1],5,3,4,,,6,4,4,5-1[12:1],4,7,{8}5,8,
(220)
6-1[8:1],,26,,3-8[8:1],,37,,5-1[8:1],,25,,4-8[8:1],,47,,
6-2[8:1],,6/1-5[8:1],,1/8-4[8:1],,8/3-7[8:1],,
5w1[8:1],,,,,7,3,4,56,7,56,4,56,,
34,5,34,2,34,5,34,,56,4,56,7,56,4,56,7,56,,
(128)
{8}
18,,2<7[8:1],,6q3[8:1]/2,,4q5[4:1]/6,,
8,,6,,2>4[8:1]*-6[8:1],,2,,
(96)
7-5[16:1],,8-4[16:1],,1-3[16:1],,8-4[16:1],,7-5[16:1],,
(128)
8qq4[4:2]*pp4[4:2],,,,,,,,
{16}3h[4:1],,4,,6h[4:1],,5,,2h[4:1],,4,,7h[8:1],,5,,
{16}
4,5,2,4,3,7,1,5,8v3[8:1]*q4[8:1],6,8,,,,,,
6,6,4,4,7q3[8:1],3,5,5h[16:3],,,,,6,4,5,3,
6-8[16:1],6,,2,2,,3-1[16:1],3,,7,7,,5,5h[8:1],,4,
5,3,8,8h[8:1],,5,6,6,2,2,5,5,3,4,2,6,8,7,2,1,4v7[8:1]*q8[8:1],5,4,,,,,,
6,6,2,2,5,4,7,3,8,1,8,1,8h[16:1],2h[16:1],6h[16:1],4h[16:1],
5s1[8:3]*s1[8:3],,,,,,,,,,{32}2h[8:1],,,,8b,7,6,,,,,,
{16}
2V84[8:2],,,,7,,5-1[8:1],,,,7,,8h[8:2],,,,2,,3,3,
4V61[8:2],,,,3,,2-6[8:1],,,,,,7,,4,5,
3h[8:1],,1,2,8h[8:2],,6,,2,2,8,1,7,8,
6,,2,4,34,,28,,7,5,
56,,2,8,18,,
2,4,34,,7,7,57,,34,,2,2,12,,68,,
45,45,45,,25,,6,{32}3,4,3,,6,5,6,,,,
(192)
{16}1,8,1,8,2,,5,,34,,12,,7<4[8:1]/8>3[8:1],,,,
7b/8b,,,,2<7[8:1],,,,6q2[8:1],,,,4v7[8:1],,,,
5v2[8:1],,,,3>8[8:1],,,,5,,5,,1,,6,,
3h[4:1],,,,7,,7,,
2-6[8:1],,5,,7,,1-5[8:1],,5,,3,,
8-4[8:1],,4,,6,,7-3[8:1],,3,,1,,
8q1[16:4],,8,,7,,,,
,,6<1[8:1],,,,46,,
3<6[8:1],,,,13,,8>3[8:1],,
,,86,,5-1[8:1],,,,25,,3,,4,,
57,,,,43,,2,,56,,8,,2,,
4
,,5-8[8:1],,6,,5b/2,,1-4[8:1],,2,,
1b/5,,6-3[8:1],,7,,6b/1,,2-7[8:1],,1,,
2b/4,,5,,6-3[8:1],,,,
6b,,,,,,,,1b,8b,1b,8b,
1b-3[8:1],,,,1/4-8[8:1],,,,4/7-5[8:1],,,,37,,1h[16:4],,
,,7h[4:1],,5,,5,,
8-6[8:1],,,,8/5-1[8:1],,,,5/2-4[8:1],,,,28,,8,,
5-2[8:1],,5,,7-4[8:1],,7,,1h[8:1],,,2h[8:1],,,3,,
(128)
4>2[8:1],,,,4/5-1[8:1],,,,5/8<6[8:1],,,,8/5q1[8:1],,5,,
5/4>2[8:1],,4,,7<5[8:1]/4,,7,,
7/1>3[8:1],,,,1/8-4[8:1],,,,8/5<7[8:1],,,,5/4q8[8:1],,4,,
4/3>1[8:1],,3,,3/8q4[8:1],,8,,
8/6b,,,,7b,,,,1b/8b,,,,
(256)
45,,,,27,,,,3,,3,,5,,5,,
4,,6,,1,,7,,2,,8,,1>8[4:6]/8<1[4:6],,,,
,,,,,,,,,,,,,,,,
,,,,,,,,,,,,,,,,2,,,,3,,,,4,,,,
(160)
56,,8,,56,,4,,56,,,,
(192)
34,,5,,34,,2,,34,,5,,34,,,,
(224)
65,,4,,56,,7,,56,,4,,56,,7,,56,,,,
(256)
2,,4,,3,,3,,34,,,,
(288)
6,,5,,7,,7,,5,,6,,64,,,,
(320)
3,,4,,2,,2,,4,,3,,5,,5,,3,,,,
(352)
8,,8,,4,,4,,6,,6,,2,,2,,
5,,5,,3,,3,,7,,7,,1,,1h[8:8],,
(384)
,,,,
,,,,
,,,,
,,,,
(192)
,,8,,
7,,6,,
5,,4,,
3,,2,,
{12}8,8,7,
7,6,6,
5,5,4,
4,3,3,{16}
(288)
2,,,,
,,,,
,2,3,4,
6,,6,,6,,
2,,2,,2,,8,,
(124.8)1-5[12:1]/8-4[12:1],,,,1b/8b,,,,
