&title=Ticking Away
&artist=Grabbitz/bbno$
&first=0
&des=Tail_R
&lv_5=12+
&inote_5=(95.001)
{1},,,{48},,,,,,,,,,,,,,,,,,,,,,,,,,,,,,,
(95)
{4}8v1[2:1],,,,
{4}8v2[2:1],,,,
{4}8v3[2:1],,,,
{4}8h[4:3]/A4/B4,B5/A5,B6/A6,B7/A7,
{16}1-4[8:1]/4,,2,5,5,,7,,1-4[8:1]/8,,2,8,8,,7,,
{16}1-4[8:1],7,2,2,8,,6,,1-4[8:1],8,8,2,7,,6,5,
{16}1-4[8:1]/4,,3,5,5,,7,,1-4[8:1]/8,,3,6,6,,7,,
{16}1-4[8:1]/4,,2,5,5,,6,,1h[4:1],5,3,7,5,,2/7,2/7,
{16}1/8-5[8:1],,7,4,4,,3,,8-5[8:1]/5,,7,2,2,,1,,
{16}8-5[8:1],2,7,7,1,,3,,8-5[8:1],1,1,7,2,,3,4,
{16}8-5[8:1]/5,,6,4,4,,2,,8-5[8:1]/1,,6,3,3,,2,,
{16}8-5[8:1]/5,,7,4,4,,3,,8h[4:1],4,6,2,4,,7/2,7/2,
{16}1V35[4:1]/8,,,,5V71[4:1],,,,1V35-2[8:3],,,,5,,7,7,
{16}8<4[4:1],,,,4>8[4:1],,,,8<4[4:1],,,,4,,2,2,
{16}1b,1,1/5,1,1/6,1,1/7,1,1/8,1,1/2,1,1/3,1,1/4,1,
{4}1h[4:3]/A5/B5/E6/E5,E7/B6/B7,E3/B3,Cf,
{48}1xb^6[8:1],2x,3x,4hx[16:3],,,{16}6x-2[8:1],,1,,4,,3,3,8,8,2,2,{48}7bx-3[8:1],6x,5x,4x,,,
{16}3x^6[8:1],,7/1,,1,,2,,5^8[8:1],5,1-5b[8:1],1,5-1b[8:1],,1,,
{16}7-4[8:1],,6,6,2,,3,,3,7,4,6,5^8[8:1]*qq3[8:1],,4/6,,
{16}5x,,,,5^8[8:1]*qq3[8:1],,4/6,,5x,,,,3/5,2/6,7/1h[8:1],,
{48}8bx^3[8:1],7x,6x,5hx[16:3],,,{16}3-7[8:1],,8,,5,,6,6,1,1,7,7,{48}2bx-6[8:1],3x,4x,5x,,,
{16}6^3[8:1],,2/8,,8,,7,,4^1[8:1],4,8-4b[8:1],8,4-8b[8:1],,8,,
{16}2-5[8:1],,3,3,7,,6,,3-8[8:1],8,2,7,7,,6,,
(95){16}5x/3x,2,2,2,4x/5x,6,6,6,2x/7x,1,1,1,Cf/B6/B2/E3/E7,,,,
{16}2b-5[8:1]/7,,3,8,8,,7,,6-3[8:1],6,3-8[8:1],3,6,,2,,
{16}1-5[8:1],,2,7,7,,6,,7-3[8:1],7,3-5[12:1],3,7,,2,,
{16}3-8[8:1],,4,6,6,,7,,8-4[8:1],8,4^7[8:1],4,8,,2,,
{16}1-3b[12:1],,8,8,1-4b[12:1],,7,7,1-5b[12:1],,6,6,1,,E7,,
{16}7b-4[8:1]/2,,6,1,1,,2,,3-5[8:1],3,5-1[8:1],5,3,,7,,
{16}8-4[8:1],,7,2,2,,3,,2-6[8:1],2,6-3[8:1],6,2,,7,,
{16}6-1[8:1],,5,3,3,,2,,1-5[8:1],1,5-3^2[8:1],5,1,,7,,
{16}6b,6,6/8,6,6/1,6,6/2,6,6/3,6,6/4,6,6/Cf,,,,
{16}A1,,,,,,E3,,,,,,,,,,
{16}D7,,,,,,B5,,,,,,,,,,
{1}1v2[2:1],
{1}1v3[2:1],
{1}1v4[2:1],
{1}1-5[2:1],
{4}1v6[2:1],8,8,8,
{4}1v7[2:1],6,6,6,
{4}1v8[2:1],5,5,5,
{8}A1/B1,A2/B2,A3/B3,A4/B4,A5/B5,A6/B6,A7/B7,A8/B8,
{16}E1,E2,E3,E4,E5,E6,E7,E8,{32}B1,B2,B3,B4,B5,B6,B7,B8,Cf,,,,,,,,
{48}1bxV75[8:1],2x,3x,4hx[16:3],,,{16}5x-8[12:1],,1,,3,,4,4,8,8,3,3,{48}7bxV13[8:1],6,5,4,,,
{16}3x-8[12:1],,7/4,,4,,3,,2v5[8:1],2,7-2b[8:1],7,2-7b[8:1],,7,,
{16}3^8[8:1],,4,4,6,,7,,2,7,3,6,5qq3b[8:1]*^8b[8:1]/4,,4/6,,
{16}5x,,,,5^8b[8:1]*qq3b[8:1],,4/6,,5x,,,,3/5,2/6,7/1h[8:1],,
{48}8bxV24[8:1],7x,6x,5hx[16:3],,,{16}4x-1[12:1],,8,,6,,5,5,1,1,6,6,{48}2bxV86[8:1],3,4,5,,,
{16}6-1[12:1],,2/5,,5,,6,,7v4[8:1],7,2-7b[8:1],2,7-2b[8:1],,2,,
{16}6^1[8:1],,5,5,3,,2,,2,7,3,6,5bqq3b[8:1]*^8b[8:1]/4b,,4b/6b,,
{16}5x,,,,5bqq4b[8:1]*<1b[8:1],,4b/6b,,5x,,,,5bqq5<4b[4:3]*<2b[8:1],,4b/6b,,
{96}A5f,D6,A6,D7,A7,D8,A8,D1,A1,D2,A2,,{8},,,,,,,
{16}2v5[8:1]/5,,3,6,6,,7,,8V64[8:1],8,4-7[12:1],4,8,,2,,
{16}3v8[8:1],,2,7,7,,6,,5V38[8:1],5,8-4-6[8:1],8,5,,2,,
{16}1b-5b[8:1],,2x,2x,7b-4b[8:1]/1b,,6x,6x,3b-5b[12:1]/7b,,2x,2x,3b/Cf,,,,
{16}A1,,,,,,B7,,,,E3,,E2,,E4,,
{16}D8,,,,,,E5,,,,,,A2,,,,
{16}D7,,,,,,E4,,,,,,C,,,,
{4}A1,D7,B3,E5,
{4}1xv8[12:1]/5xv4[12:1],,3xv2[12:1]/7xv6[12:1],C,
