&title=Won't Back Down
&artist=Pure100% / KASA
&first=0.29
&des=⑨
&lv_5=14
&inote_5=(165){4},{8},,6/3,5,4,5,
3,6,4,5,3,5,4,5,
3,6,4,5,6/3,5,4,5,
3,6,4,5,3,5,4,5,
3,6,5,4,6-8-5[4:1],3,6,4,
3V14[4:1],6,3,5,6,4>8[4:1],{4}5h[8:3],
{8},,6/3,{16}4,5,{8}4,7/3,{16}1,8,{8}1,
7-3[8:1],2-6[8:1],7,2,{2}Ch[4:3],
{24},,,,,,,,,,,,6h[4:1]/B3,B4,,,,,,,,,,,3/E7,
B6,,,,,{4}5,4,5/3,
{24}6h[2:1]/B3,B4,,,,,,,,,,,B1,B2,,,,,,,,,,,{4}7/B2/E3,
6,3,5,
{24}3/B7,E7,,,,,{4}4,{24}6bh[4:1]/E3,B3,,,,,,,,,,,B1/6pp7-5[8:5],
B2,,,,,{4}4h[8:1],,,{2}5h[8:1]/4h[8:1],
{24}E7/3bqq4[2:1],B6,,,,,,,,,,,{4}6h[8:1],
8b,{8}6/B2,,,3/B6/E6,
4,5bh[8:1],{4}4b-1[8:1]*-7[8:1],4,6V84[4:1],
4-7[8:1],1-6[8:1]*-4[8:1],1,3V15[4:1],
5-1[8:1],7-3[8:1],{8}7,1-4[8:1],8-5[8:1],1,
{4}8,1V75[4:1],{8}5V31[4:1],,,7-5q1[4:1]*-1p5[4:1],
{2}7,{4}7h[8:1]/3h[8:1],6h[8:1]/2h[8:1],
{8}6/2,5h[8:1]/1h[8:1],,8/4,{4}8h[8:1]/4h[8:1],7h[8:1]/3h[8:1],
6h[8:1]/2h[8:1],1h[4:1]/5<1[8:3],{8}5b,2,3,4,
{4}5-2[8:1]/1-6[8:1],5/1,{8}7/3,6,3,5,
{16}4,6,4,6,3V15[4:1],5,3,5,{8}3b,8-4[8:1],,8>2<8[4:1]*<6<8[4:1],
,8-6v4[16:5]*-2v4[16:5],,,,,,2v4[8:1],
8v6[8:1],2,{4}8,{8}1-6[8:1],6-8-2[4:1],,2v5[8:1]*p6[8:1],
,,,7/4,{24},,,1/8,2/7,3/6,{8}4/5,5,
4,6,4,5,{16}4,5,4,7,4,5,4,1,
4,5,4,3,4,5,4,7,4,5,4,6,4V26[16:3],5,4,6-8-2[16:3],
,,,,,,,,{8}6/5,6/5,5/4,5/4,
{16}3,4,3,2,3,4,3,2,{4}3h[4:1],7-5v4-2[4:1],
8-5qq5b[4:1],8>5-8[4:1],{8}8b,,,2-6[8:1],
,2/1-5[8:1],,1/8-4[8:1],,8/7-3[8:1],,7,
2-5[8:1],1,{4}8/2,{8}6<4[8:3],6,,4>7[4:1],
,7V13-5[8:3],,5h[4:1],,,,1,
8-3[8:1],7,{4}6/8-5[8:1],{8}8,1-6[8:1],7,1-4[8:1],
,1<6p4[8:3],,1/3,,,,2v5[8:1],
1-6[8:1],2,{4}1,{8}4-8[8:1],8-3[8:1],,,,5-1[8:1],
{4}1-6[8:1],{24},,,,,,E6,E7,E8,E1,E2,E3,
{4}5bx/4bx,{24}3,2x,1x,8x,7x,6x,3,2x,1x,8x,7x,6x,{8}4b-1[8:1],8-5[8:1],
4,8>4qq2[4:1],,8,,,8-3[8:1],3>8[8:1],
{2}8<5[8:1],{8}2-6[8:1],8-4[8:1],,8-2-4-1[4:1],
,8-5V71b[4:1],,8,,,{4}1x-6[8:1]/5x-2[8:1],
{16},,,,3x,7x,3,7,3,6,3,6,4,5,4,5,
3,6,4,5,3,6,4,5,4,5,3,6,4,5,3,6,
{8}3-8[8:1],4-6[8:1],3,4,8x-4[8:1],6,8,6,
{16}4x/8x,7/3,2/6,5/1,{4}8q5[8:1]/4q1[8:1],8b/4b,{16}1x-5[8:1],1,1,1,
{4}1bx,{24}1,2,3,4,5,6,7,8h[24:11],,{8}6,{4}4-7[8:1],
4,{8}1-6[8:1],6-1[8:1],,,5-8[8:1],6,
5-2[8:1],4,5<8[8:1],6,5,4,{16}5,4,4,5,
3,3,5,2,{4}2-5[8:1],2/8,{24}7,6,5,4,3,2,
1-5[8:1],8,7/3,4q8[8:1],5,6,{4}7,1w5[8:1],1,
7/3,5-7>8[8:1]/1-3<4[8:1],5/1,{8}8bx/4bx,8b/4b,
{16}5-1[8:1],7,3-6[8:1],6,,,,,{4}E8/B7,2/B6/E6,
1/B5/E6,{8}B4/E4/8>3[8:1],8x,8<5[8:1],8x,8-3[8:1],8x,
8-5[8:1],{16}8x,8x,{4}8x,{24}1x,2,3,4,5,6,{16}7,8,1,2,
3,4,{8}5-1[8:1],,,B6/B5,B8/B7,4h[8:1],8,
{16}4h,6,2h,8,5h,7,1h,5,{8}3h[4:1],5,{16}5s1z5[2:1],6,7,8,
7x,6x,{8}5x,,,{4}8h[4:1],{16}1,2,3,4,
{24}E1,E8,E7,E6,E5,E4,{8}1q5[8:1],1,{4}1/7<4[8:1],7,
{6}2>5[8:1],{12}2,8p4[8:1],,,{4}8,1>3[8:1],
{16}8,7,{8}6,{16}4-8[8:1],5,{8}4,{4}4/5-1[8:1],5,
{16}4/B7/E8,,,5/B2/E2,,,{8}7/3,2/6,5/3,4-1[8:1],3,
4-7[8:1],5,4-8[8:1],3,{2}B4f,
{4},,,5x-8-4-1[8:3],
{8},,,,3x<1[8:3],3xh[8:3],,,,,{4}8xp1[4:1],
,8xpp5[8:3],
{8},,,,3h[4:1],8,6h[4:1],1,
4,8-2q4[8:3],,8h[8:3],,,,6<2[8:1],
{2}2>6[8:1],{8}3x/4x,3x/4x,5/4,5/4,
{16}6,5,6,7,6,5,6,7,{4}6,7-5v4-2b[4:1],
8-5qq5[4:1],8>5-8b[4:1],8b,{16}B1,B2,B3,B4,
{8}2bx/7bx,5bx/3bx,6b/3b-1-4b[4:1],6b,{4}3b/6b,{16}8b-3b[8:1],7b,{8}6b,
{4}8b/5b,{8}5bh[8:1],4bh[8:1],{4}6bh[8:1],{16}4bx,5bx,4bx,5bx,
{8}3bx,6bx,{4}Ch[4:1],4b,{12}E1/E3,B8/B3,B7/B4,
{4}6bx/5bx-2-5b[4:1],7b-4b[8:1],E7f,{16}7bx-4[8:1]/2bxpp5b[8:3],7bx/2bx,{8}7bx/2bx,
{2}B2f,{24}1bx`8,2bx`7,3bx`6,4bx`5,,,,,,,,,{8}7,
3,{4}2/6p4[4:1],{8}6/E4,E3,E2,E1,
{24}6x,7,8/1,2,{12}3,5pp5-3[4:1],,,,,,8,7,6,
{16}5b/1,2,3,4,{32}8,7,6,5,4,3,2,1,{4}8/4>1[8:1],{8}4-7[8:1],6,
4-8-4[4:1],2,{4}4,{8}7-5[8:1],3,2/7-4[8:1],1,
2/7-3[8:1],3,{4}7/2,{8}1,4-8[8:1],6,8-4[8:1],
6,4p8[8:1],6,8p4[8:1],{4}6,6,
{16}8v5[8:1]/1v4[8:1],7/2,{8}6/3,{4}8/1,{8}6/3,1,5/3,8,
6/4,1,5/3,7/1,4/5,8/2,3/4,8/1,
6/3,1/8,6/4,7/1,{16}3-8[8:1],4,3,4,{4}3b,
{16}6-1[8:1],5,6,5,{4}6b,{16}1,8,1,8,2,7,1,8,
2v5[8:1],7,1,8>1>2>3[1.3636##0.5455],{4}2b>3<4<5<6<7>8>1>2b[8:7]*>3<4<5<6<7>8>1[4:3]*>3<4<5<6<7>8[8:5]*>3<4<5<6<7[2:1]*>3<4<5<6b[8:3],
E
