&title=MegiddØ
&artist=BlackY VS 大国奏音
&first=0.1
&des=ttkr
&lv_5=15+
&inote_5=(180){2},
{32}4,5,4,5,4,5,4,5,4,5,4,5,4,5,4,5,
{12}4b,3,2,1,8,7,6,5,4,3h[3:1]/5b,6,7,8,1,2,3,4,5,6h[3:1]/4b,3,2,1,8,7,6,5,4,3h[12:1]/5b,6,3h[12:1]/7,8,3h[12:1]/1,2,3,24,15,
{12}6h[3:1]/8b,1,2,3,4,5,6,7,8,1b/3h[3:1],8,7,6,5,4,3,2,1,6h[3:1]/8b,1h[24:1],2h[48:1],3h[16:1],4h[24:1],5h[48:1],6h[16:1],7h[24:1],8h[48:1],1b/3h[16:1],{24}8h[24:1],4h[16:1],7h[48:1],,5h[16:1]/6h[16:1],,5h[24:1],6h[16:1],4h[48:1],,3h[16:1]/7h[16:1],,2h[24:1],8h[16:1],1h[48:1],,
{24}1b/8h,,2,1h,3,,4/2h,,5,3h,6,,7/4h,,8,5h,1,,2h/6b,,5,1h,4,,3/8h,,2,7h,1,,6h/8,,7,5h,6,,4b/5h,,5,4h,6,,3h/7,,8,2h,1,,1h/2,,3,8h,4,,7b/5h,,8,4h,1,,2/3h,,3,2h,4,,1h/5,,6,8h,7,,
{16}7b/8b,16,25,34,3,2,1b/2b,38,47,56,5,4,3b/4b,25,16,78,7,6,5b/6b,47,38,12,1,8,4b/7b,36,25,14,38,27,1,8,7,6,5,4,{24}2,3,2,3,2,3,2,3,2,3,2,3,2,3,2,3,2,,{1}1h[4:7]/4b,,
{16}2b/8b,,3,4,3,,3,5,3,,3,4,3,,3,6,4h[8:1],,5,,45,,4,6,3,3,4,2,,8,1,,{32}26,15,48,37,26,1,8,7,{16}6,6,2,2,1h[8:1]/5b,,8,,{32}37,48,15,26,37,8,1,2,{16}3,3,7,7,4b/8h[8:1],,2,1/2b,,6,{32}5/6b,4,3,2,1,8,7,6,5,4,3,2,
{16}1b/5b,,6,4,6,,6,5,7,,7,6,7,,7,8,6h[8:1],,5,,46,,6,5,7h[8:1],,8-4[8:1],,17,,6b/8b,,,,46,,35,,2,4,3b/5b,,56,45,,34,4b/5b,,46,,7,5,4b/6b,,3<3[16:5]/5<3[16:5],4b/6b,,,3b/5b,,,,,,
{8}4b,,,{16}1b/5b,1b/5b,{24}5b/1b,2,3,4,5,6,7/1b,2,3,4,5,6,7/3b,2,1,8,7,6,5/3b,2,1,8,7,6,5/1b,2,3,4,5,6,7/1b,2,3,4,5,6,7b/3b,8h/2,1,8,7,6,5/8b,7h/4,3,2,1,8,1/5b,2/4h,3,4,5,6,4b/7,5h/8,1,2,3,4,5/1b,4/2h,3,2,1,8,7/2b,6/1h,5,4,3,2,1,8,1,8,1,8,1,8,1,8,1,,
{16}2b/7,,2/7b,,3b/6,,3/6b,,4b/5,4,4/5b,5,4b/5,4,{8}4b-6[8:1]/5b^7[8:1],,4b-8[8:1]/5b-8[8:1],,4b>6[8:3]/5bV31[16:3],,4b/5b,,,
{1}5b<4[2:13],,,,5q4[8:19],,,{2}5h[2:1],{32}6,7,8,1,2,3,4,5,{24}6,7,8,1,2,3,
{8}4b/5b,,,45,4-1[8:1]/6-1[8:1],,,,45,,45,,4-1[8:1]/6-1[8:1],,,,3b/8h[4:1],,{48}7,6,5,4,3,2,{8}1b/4b,28,3b-6[8:1]/7b-4[8:1],,3b/7b,,,{48}2b/8b,37,46,{16}5,{8},1-5[8:1]/6,,,,4b/8b,48,37,37,26,26,15,15,4b/8b,48,15,15,26,26,37,37,4b/8h[4:1],,{24}5,{16}1,{24}5,1,5,{48}1,{24}5,1,5,1,5,1h[6:1],,,,{16}2,2,8,5,6,3,5,4,6,6,{32}1w5[8:1],2,3,4,5,6,7,8,{4},
{16}3b/6,,,2V41[16:3]/7bV58[16:3],,,1b/8b,,,,,,4b/5,,,4/5b,,,3b/6,,,2-4[16:1]/7b-5[16:1],,,1b/8b,,,{48}1b/8b,27,36,{4}45,{64}4b,35,26,17,{48}8h[48:11],7,6,{32}5,4,3,2,{24}1,,7,{16}6,5,{24}4h[4:1]/8b,,8,,8,,8,,8,4,8,4,{6}1h[12:1]/3h[12:1],2h[12:1]/8h[12:1],1h[12:1]/7h[12:1],{2}6b-4[8:1]/8b-4[8:1],
{32}37,48,15,26,37,48,15,26,{16}3b/7b,,,,3b/6,,,2z6[16:3]/7bs3[16:3],,,1b/8b,,,,,,4b/5,,,5b/4,,,3b/6,,,2pp4[16:1]/7bqq5[16:1],,,1b/8b,,,3,7,2,6,4,{24}8b,7,6,1,8,7,2,1,8,3,2,1,
{8}4h[16:3]/8bpp4[8:5]*pp4[8:5]*pp4[8:5]*pp4[8:5]*pp4[8:5]*pp4[8:5]*pp4[8:5]*pp4[8:5]*pp4[8:5]*pp4[8:5],,,5h[8:1],,6h[4:1],,,3b/8h[4:1],,
{48}2b-8[16:1],3,4,5,,,,,,2b-7[16:1],3,4,5,,,,,,2b-6[16:1],3,4,5,,,,,,2bv1[16:1],3,4,5,,,,,,2bv8[16:1],3,4,5,,,,,,2bv7[16:1],3,4,5,,,,,,2b-6[16:1],3,4,5,,,,,,2bw6[16:1],3,4,5,,,,,,{2}2bpp1[4:1]*pp1[4:1],
{48}7b-1[16:1],6,5,4,,,,,,7b-2[16:1],6,5,4,,,,,,7b-3[16:1],6,5,4h,,,,,,7bv8[16:1],6,5h,4h,,,,,,7bv1[16:1],6h,5h,4h,,,,,,7bv2[16:1],6h,5h,4h,,,,,,7b-3[16:1],6h,5h,4,,,,,,7bw3[16:1],6h,5,4,,,,,,{4}7bpp5[8:3]*pp5[8:3],,,
{24}3b,2/6b,3b/7,2/6b,3b/7,2/6b,3b/7,2/6b,3b/7,2/6b,3b/7,2/6b,{12}1b-5[8:1]/7,1,1,8b-4[8:1],8,8,2b-5[24:1],,6b-1[24:1],,3b-7[24:1],,
{1}5w1[2:1],8w4[2:1],{2}2qq5[2:1]/6,5qq8[2:1],8qq3[2:1],3qq6[2:1],{8}6V82[4:1],8V24[4:1]*V24[4:1],2V46[4:1],4V68[4:1]*V68[4:1],6V82[4:1],8,2>2[1:1],4,{2}6h[8:7],,5h[32:31],{4},{8},{16},{32},{64}2,1,{4}8w4[32:23],,1w5[8:1]*w5[8:1],,
{8}2b/7b,1/4qq8[8:3],36,48,,4,5,1-3[8:1]/6-4[8:1],8,1-7[8:1]/6-8[8:1],,1/6w2[8:1],,6,,48,2bqq5[16:7]/6b,,,{16}8,7,{4}6<4[8:3],4,5bV71[16:3],1,{16}2,3,4,5,26,15,48,37,2b/6b,,4-7[8:1]*-8[8:1]/8,,36,3,4b^1[8:1]*-2[8:1],,,,4b,,,,{32}7b,68,15,24,{16}3b,,6,8,7,1,8b,2,1,5,8b,4,37,,{32}1b,28,37,46,{16}5b,,2,6,1,7,8,5,3b,1,4,8,5,6,4,7,{24}2b,1,8,7,6,5,4/2h,1h,8h,7h,6h,5h,4h/2b,1,8,7,6,5,4w8[8:1]/2h,1h/3,2/8h,1/7h,6h/8,5h/7,
{4},{8}2b/6b,26,,{16}8,17,26,35,{8}4,2b^5[8:1]/6,1,8,7,2/6^1[8:1],5,4,3,2b/6h,{32}2b,3,4,5,3h,4h,5h,6h,7h,8h,1h,2h,{8}3h/7b,{32}7b,6,5,4,6h,5h,4h,3h,2h,1h,8h,7h,{8}2b/6h,{32}2b,3,4,5,4h,3h,2h,1h,8h,7h,6h,5h,4h/1b,2,3,4,2b,3,4,5,3b/6,4b/7,5b/8,1/6b,7b,8b,1b,2b,{8}4,3-8[8:1]/5-8[8:1],26,35,,16,16,,{16}1b/2b,2,4,4,6,6,8,8,78,7,1,1,3,3,5,5,{8}5b/6b,56,45,45,3b/4b,12,78,56,{16}4b/5b,4,2b/3b,2,{8}1b/8b,1b/8b,7b/8b,1b/6b,{16}2b-8[8:1]/5b-8[8:1],2b/5b,2b/5b,2b/5b,
{4}5,{16}2,1,2,1,3,8,3,8,48,37,26,15,48,,1,6,2b,7,4,5,35,3,4,46,6,5,54,4,8h,8,2h,7b,1h,1,6b,6,3h,3,1h,4b,8h,8h,{32}5b,4,37,28,{8}1b,{48}7,6,5,3,4,5,{8}8b,{48}2,3,4,6,5,4,{8}2b,{48}7,6,5,3,4,5,{8}6b,{24}1,8,1,{16}2b/7b,,3,4,58,7,62,3,47,6,51,2,3/8-4[8:1],7,62,3,4/8b,,1,1,12,1,18,1,12,1,18,1,12,1,18,1,2b/4b,,2,4,2,,25,,2/5h[4:1],,2,,2h[16:1],,2h[16:1],,4/7h[16:1],,7h[16:1],4,7h[16:1],,5/7h[16:1],,5h[4:1]/7h[16:1],,7h[16:1],,7h[16:1],,7h[16:1],,
{24}2b/6b,3,4,2,3,4,2h[72:1]/5h[36:1],3h[72:1]/6h[36:1],4h[72:1]/7h[36:1],5,6,7,1b,1h[24:1],,{72}5h[144:1],4h[144:1],3h[144:1],{24}7,7,4,3,2,1h[36:1]/4h[72:1],3,2,{48}1b/3b,4b/8b,5b/7b,6b,{24},,4h[12:1],6h[12:1],,,3h[24:1],{48}8,1,8,{16}1h[48:7],{24}2b,3,4,2h[72:1]/5h[36:1],3h[72:1]/6h[36:1],4h[72:1]/7h[36:1],5,6,7,85,16,27,
{1}3b/8b-4[2:7],,,,{2}1h/8,2h/7,3h/6,4h/5,4/5h,3/6h,{8}2bq4[8:5]/7b,7,7,7,8,8,8,8,{32}3b,6h[64:1],{16}2,7,2,{32}4h[64:1],5h[64:1],{16}3,6,3,{32}4h[64:1],5h[64:1],6h[64:1],7h[64:1],4,,4h[64:1],3h[64:1],2,,6,,{48}6h[96:1],7h[96:1],8h[96:1],3h[96:1],2h[96:1],1h[96:1],
{16}5b,,,2bp6[8:1]/6p2[8:1],,,3b/7b,,,,,,1b/5,,,4b/8,,,3/7b,,,2b-4[16:1]/6-8[16:1],,,1b/5b,,,{48}1b/5b,26,37,{16}4qq2[8:1]/8qq6[8:1],,,,4b/8b,,,3b,7,2,6b,4,{24}8,7,6,1,8,7,2,1,8,3,2,1,{8}4h[4:1]/8bpp4[8:5],,,5h[8:1],,6h[4:1],,,{16}3b/8h[16:21],,,3bV57[16:3],,,3b,,,,,,1b,,,1b,,,2b,,,3b-1[16:1]*V57[16:1],,,4bw8[16:1],,,4b,,,26,,2b/6b,,,3b/7b,,,3b/7b,26,15,48,7,6,
{32}1b/5,1h,{16}4,3,{32}2/6b,6h,{16}1,8,{32}7/3b,3h,{16}6,5,{32}8b/4,8h,{16}3,2,{32}1/5b,5h,{16}8,7,{32}6/2b,2h,{16}5,4,{32}3h[16:1]/7b,7h,{16},{24}2b,3,1,8,3b,4,8,7,4b,5,7,6,3b,2,4,5,2b,1,5,6,1b,8,6,7,{48}4b/8b,37,{24},3h[48:1]/7h[48:1],,{48}3b/7b,26,{24},2h[48:1]/6h[48:1],,{48}2b/6b,15,{24},1h[48:1]/5h[48:1],,{48}1b,8,1,8,1,,8,,2b,7,3,6,3-6[1000:1],,6,,3b,6,4,5,4,,5,,
{1},{128}18,27,36,4w8[128:477]/5w1[128:477],,,,
