&title=ただ声一つ
&artist=ロクデナシ
&first=0.31
&des=Hare
&lv_5=13
&inote_5=(130)
{8}
6,5,4,
{16}
3h[8:1],,B5,B4,3h[8:1],,B5,B4,2h[8:1],,B5,B4,2h[8:1],,B5,B4,3h[8:1],,B8,B1,3h[8:1],,B8,B1,2,,3,,4,,5,,6h[8:1],,B4,B5,6h[8:1],,B4,B5,7h[8:1],,B4,B5,7h[8:1],,B4,B5,6h[8:1],,B1,B8,6h[8:1],,B1,B8,7,,6,,5,,4,,3h[8:1],,B8,B1,3h[8:1],,B8,B1,2h[8:1],,B5,B4,2h[8:1],,B5,B4,3h[8:1],,B8,B1,3h[8:1],,B8,B1,2,,3,,4,,5,,6h[8:1],,B1,B8,6h[8:1],,B1,B8,7h[8:1],,B4,B5,7h[8:1],,B4,B5,6h[8:1],,B1,B8,6h[8:1],,B1,B8,
{8}
6,5,4,3,3/6-3[8:1],,1h[8:3],,,8,7,6,5h[4:1],,B2,B3,4h[4:1],,7,6,5w1[8:1],,,,,2,3,4,4h[4:1],,,8,8h[4:1],,2,3,4w8[8:1],,,,,3,4,5,6h[4:1],,B5,B4,3h[4:1],,1,8,8w4[8:1],,,,,3,4,5,6h[4:3],,,1,1,,
{32}
B2,B3,,,
{8}
,5-1[8:1],,4,3,3-6[8:1],,2,1,1-4[8:1],,8,7,7-2[8:1]b,,,,
3>8[8:1]b,,3/8>3[8:1],5,7<4[8:1]b,,4<7[8:1],1,3>8[8:1]b,,8>3[8:1],5,7,,5/6,4/5,3>8[6:1]/4,,8p3[6:1]b,6,4>1[6:1],,8,7,6pp4[4:1],6,3,3,2,,3/4,4/5,5/6<1[8:1]b,,1<6[8:1],4,2>5[8:1]b,,5>2[8:1],8,6<1[8:1]b,,1<6[8:1],4,2,,2/8,1/7,8/6<1[6:1],,1q6[6:1]b,3,5<8[6:1],4,3,2,2qq5[4:1]b,2,6,6,7,,8h[4:1],,4b,,
,,,,,,,,,,,,,,
5h[8:1],,C,,6h[8:1],,C,,7h[8:1],,C,,E6,B5,B4,E4,C,,1b,,5h[8:1],,C,,6h[8:1],,C,,7h[8:1],,C,,8h[8:1],,C,,1h[8:1],,C,,2h[8:1],,C,,3h[4:1],,
{32}
B7,B6,,,
{8}
,4w8[8:1],,,,,2,3,4,5h[8:1],
{16}
3,4,3,,2,,3/5,,6,5,6,,7,,4/5w1[8:1],,,,,,,,,,8,,7,,6,,5h[8:1],,3,4,3,,2,,4/5,,6,5,6,,7,,4-8[8:1],,,,
{32}
E7,E6,,,
{16}
,,,,1,,2,,3,,4h[8:1],,6,5,6,,7,,4/6,,3,4,3,,2,,1w5[8:1],,,,,,,,,,8,,7,,6,,5<8[4:1],,,,8>3[4:1],,,,3<6[4:1],,,,6<1[4:1],,,,3b,,E4,B4,B5,B1,B8,E8,E4,B3,B2,E2,E6,B6,B7,E8,C,,E2,B2,B3,B7,B6,E6,B4,B3,B2,B1,B8,B7,B6,B5,B4/C,B3,B2,B1,B8,,B6,B7,E4,B3,B2,E2,E6,B6,B7,E8,C,,B4,B5,E2,B1,B8,E8,B2,B7,B3,B6,C,,3,4,5h[8:1],,,,4,3,2,1,7,6,5,4,2,3,4,5,8,7,6,5,1,2,3,4,7,2,7,2,6,3,6,3,5h[8:1],,3,2,8,7,6,5,1,2,3,4,8,7,6,5,2,7,2,7,3,6,3,6,
{4}
4h[2:1],,C,,6h[4:1]/B3/B4,,2h[4:1]/B7/E8,,5h[4:1]/B1/E2,,3h[4:1]/B7/B6,,8h[4:1]/B3/B4,,4h[4:1]/Ch[2:1],,1,2,
{16}
3>8[8:1],,,4,3,,4,,5,,6,,7,,,,7<4[8:1],,,8,7,,8,,1,,2,,3,,,,3>8[8:1],,,4,3,,4,,5,,6,,7,,,,6h[16:3],,,5,6,,
{24}
3,4,3,
{8}
4w8[8:1]b,,,,3>8[8:1],,8>3[8:1]b,5,7<4[8:1],,4<7[8:1]b,1,3>8[8:1],,8>3[8:1]b,5,7,,6/7,4/5,3/2,,5/2>4[8:1],4q5[4:1],6,5<7[8:1],6,8,1,1h[8:1],5,5h[8:1],8b,,5,4,3>8[8:1],,8>3[8:1]b,5,7<4[8:1],,4<7[8:1]b,1,3>8[8:1],,8>3[8:1]b,5,7,,1/2,8/1,7/8,,4/7<5[8:1]b,5p4[4:1]b,3,4>2[8:1]b,3,1,8,8h[8:1],4,4h[8:1],1b,,,,2,,3qq5[4:1]/7,4,3/7,,7pp5[4:1]b,8,7/3,,3qq5[4:1],2,3/7,,6,,6h[4:1],
{24}
E6,B5,B4,
{8}
E4,C,E2,B2,B3,E4,E8,B7,B6,E6,3,4,5,6,1b,,6pp4[4:1]b/2,7,3/6,,2qq4[4:1],1,2/5,,6pp4[4:1]b,7,3/6,,2,1,8>3[4:1],,3<6[4:1],B5,6<1[4:1],B8,1>4[4:1],B2,5,5,6,6,7h[4:1],,1h[4:1],,
{16}
8b,2,8,2,7,3,7,3,6,,4/5,,3/4,,3,4,2,5,2,5,3,6,3,6,1,8,1,8,
{8}
2/7,,5/7<5[8:1],8,4,3,2>4[8:1],1,5,6,7,8,1,2,3w7[8:1]b,,,,
{16}
3,,3,4,2,,6,5,7,,3,4,2,,6,5,7,,3,4,2,,8,1,7,2,7,2,
{8}
1/8,,7pp5[4:1]b,,5,4,3>8[8:1]b,,8>3[8:1],5,7,,8>3[8:1]/3,5,6h[4:1],,,,,,,
{12}
8,
{16}
1,
{24}
2,3,4,
{32}
7,6,5,
