&title=炭★坑★節
&artist=Kai/光吉猛修
&first=0
&des=镜区
&lv_5=13
&inote_5=(112)
{1},
{8}6v5-3[4:1],,,,2v4-7[4:1],,,,
8-2[8:1],,3-7[8:1],,6V48[4:1],,,,
2-5-3[4:1],,,,8q5[8:1],,,,
2-4[8:1],,5-1[8:1],,7>6[4:1],,,,
{8}2<5[6:1]*p5[6:1],,,,4<7[6:1]*q1[6:1],,,,
2<7[8:1],,6q3[8:1],,4>2[8:1]*<7[8:1],,,,
1-5[8:1],,6-1[8:1],,5qq1[8:3],,,,
8qq4[2:1]*pp4[2:1],,,,,,,,
{8}2<7[8:1]/3p6[8:1],,,,7p2[8:1]/6>3[8:1],,,,
1pp4[8:3]/5pp8[8:3],,,,,,3>8[8:1]/7<4[8:1],,
,,8pp2[8:1]/4pp6[8:1],,,,2-7[12:1],,
6-3[12:1],,1b,1b,
{24}2-4[12:1],,2,5-1[12:1],,5,,,,,,,4>1[12:1],,4,8q5[12:1],,8,,,,,,,
1-5[12:1],,1,6<1[12:1],,6,1,,,6,,5,5>2[12:1],,1,1-5[12:1],,,5,,,1,,,
2xh[8:1],,,4-8[12:1],,4,2,,2,4,,,1xh[8:1],,,7<4[12:1],,7,1,,1,7,,,
2,,2,3,,3,4,,4,5,,5,6,7,8,1-5[12:1],,,4/6,,,1,,,
{24}7qq5[12:1],,7,4>1[12:1],,4,,,,,,,5q1[12:1],,5,2v4[12:1],,2,,,,,,,
8<5[12:1],,8,3q1[12:1],,3,8,,,3,,5,5<8[12:1],,2,2>5[12:1],,,5,,,2,,,
8xh[8:1],,,4>1[12:1],,4,8,,8,4,,,5xh[8:1],,,8<5[12:1],,8,5,,5,8,,,
8,,8,1,,4,3,,6,5,,8,1,8,2,1,2,4,3,4,5,6,7,8,
{8}1<4[6:1]*p4[6:1],,,,3>6[6:1]*p6[6:1],,,,
5p8[8:1],,1>4[8:1],,6q3[8:1]*-3[8:1],,,,
2>5[8:1],,6pp8[8:1],,5qq2[8:3],,,,
1qq5[2:1]*pp5[2:1],,,,,,,,
{8}7v2[8:1]/6>3[8:1],,,,2<7[8:1]/3v6[8:1],,,,
8qq5[8:3]/5qq2[8:3],,,,,,2pp4[12:1]/5pp7[12:1],,
,,4>1[12:1]/7<4[12:1],,,,1-4[12:1],,
5-8[12:1],,1b,1b,
{24}8<5[12:1],,8,4>1[12:1],,4,8-4[12:1],,,4,,,8-3[12:1],,1,1-5[12:1],,5,8,,,1,,,
3,,3,4,,4,5,,5,6,,6,1,2,3,4-8[12:1],,,1/7,,,4,,,
7,,7,5>2[12:1],,5,7,,7,5,,,8,,8,1-5[12:1],,1,8,,8,1,,,
7,,7,6,,6,5,,5,4,,4,3,2,1,8-4[12:1],,,5/3,,,8,,,
{24}1-5[12:1],,1,8<5[12:1],,8,1>4[12:1],,,8,,,1-5[12:1],,8,8-3[12:1],,4,1,,,8,,,
6<1[12:1],,6,3pp5[12:1],,3,6,,,3,,1,1q5[12:1],,4,4>2[12:1],,,1,,,4,,,
5,,5,1>4[12:1],,1,5,,5,1,,,8,,8,5>2[12:1],,5,8,,8,5,,,
{1}Ch[1:1],
{4}2V46[4:1],4,7v5-3[4:1],5,1-3[8:1],4-8[8:1],7<2[4:1],,
1-7[8:1],6-2[8:1],3qq5[8:3],,7pp4[2:1],5p4[4:1],,,
3<6[8:1]*q7[8:1],,6q2[8:1]*<1[8:1],,
3-8-5[8:3],7-4[8:1],,
{8}3-8[8:1],3h[4:1],,,7-4[8:1],7h[4:1],,,
3<6[8:1],,7p2[8:1],,1b,1b,
{24}7x<5[12:1],,,8xp4[12:1],,,,,,,,,
1xq5[12:1],,,2x>4[12:1],,,,,,,,,
6xpp8[12:1],,6,5>2[12:1],,,,,,,,,
7x<4[12:1],,7,1pp3[12:1],,,,,,,,,
5xpp7[12:1],,5,3>8[12:1],,,,,,,,,
B7,B6,B5,B4,,,,,,,,,,,,,,,,,,,,,
E
