&title=メッちゅう殴打
&artist=STEAKA feat.山田じぇみ子
&first=0
&des=Soxps
&lv_5=14
&inote_5=(178)
{1},,
{8}2h[4:1]/4h[4:1],,,2h[4:1]/4h[4:1],,,3h[16:1],3h[16:1],
{16}4h[4:1]/6h[4:1],,,,,,4h[4:1]/6,,,,6,5,6,5,6,5,
{8}7h[4:1],,,7h[4:1]/5,,4h[8:1],6h[8:1],4,
{16}35,,35,,2h[8:1],,6,5,6,5,7h[8:1],,1b,,,,
{8}2h[4:1]/4h[8:1],,,3h[4:1]/5-7[8:1],,,4h[16:1],4h[16:1],
{16}5h[4:1],,7h[8:1],,,,4/6h[4:1],,,,3,3,5,,2,2,
{16}8b,,,,47,,6,5,6,4,7,3,6,,2h[4:1]/8,,
{16},,7-3[8:1],,1q5[8:1],,7,,1,,6,,47,,3,,
{16}2-5[8:1]/1-5[8:1],,,,1b/2b,,,,4h[16:3]/6,,,8,,,7/5h[16:3],,,8h[16:3],,,1,,37,,,,3,,25,,6,,
{16}7-4[8:1]/8-4[8:1],,,,7b/8b,,,,5h[16:3]/3,,,1,,,2/4h[16:3],,,1h[16:3],,,8,,62,,,,34,,5,,6,,
{16}1-4[8:1]/7-4[8:1],,,,1b/7b,,,,5/3h[16:3],,,1,,,4/6h[16:3],,,1h[16:3],,,8,,37,,,,56,,4,,3,,
{16}2-5[8:1]/8-5[8:1],,,,2b/8b,,,,6/4h[16:3],,,8,,,35,,
{16},,64,,42,,73,,5b/1b,,6,2,7,3,8,4,
{16}8h[16:4],,,,7-2[8:1],,,,7b/3,,,,48,,7,5,
{16}6h[4:1],,8,,5h[4:1],,8,,6,,3,4,3,,1h[8:3]/5,,
{16},,,,2-7[8:1],,,,2b/6,,,,15,,2,4,
{16}3h[4:1],,1,,4h[4:1],,1,,3,5,3,5,4,6,4,6,
{16}4h[4:1],,,,5-1[8:1],,,,2/5b,,,,38,,7,,
{16}56,,4,,35,,6,,47,,3,,25,,2/5h[8:3],,
{16},,,,4-8[8:1],,,,4b/7,,,,16,,35,,
{16},,24,,46,,15,,3v8[8:1]/7-4[8:1],,,,3b/7b,,,,
{8}2h[8:3],,4,5,6h[8:3],,8,8,
{16}15,,,,2h[8:1],,4,3,4,,2,4,2,,15,,
{16}1h[4:1]/5h[8:1],,,,,,7/3,,7h[4:1]/3h[8:1],,,,,,2,,
{16}34,,7,,56,,1,,2/4,,5,,3b/7b,,6,,
{16}6h[8:1],,,,6h[8:1]/4,,,,6h[16:3],,,5,6,,64,,
{16}3h[8:1],,,,3h[8:1]/5,,,,2h[16:3],,,1,3,,4/8,,
{16}7h[8:1],,,,4h[8:1]/6,,5,,7h[8:1],,,,4h[8:1]/6,,5,,
{16}7-1[8:1],,7,,2-4[8:1],,2,,7-3[8:1],,7,,1,,,,
{16}2h[8:1],,,,2h[8:1]/4,,5,,3h[16:3]/6,,,4,3,,25,,
{16}6h[8:1],,,,6h[8:1]/8,,1,,2/6h[16:3],,,5,6,,47,,
{16}3h[8:1],,,,2/5h[8:1],,3,,3h[8:1]/4,,,,2/5h[8:1],,3,,
{16}3-5[8:1],,3,,6-8[8:1],,6,,1,,1,,2,4,2,4,
{16}3b,,6,5,6,,3,4,2h[4:1],,5,,4h[4:1],,1,,
{16}2,,6,5,6,,3,4,2h[4:1],,6,,5h[4:1],,1,,
{16}2,,6,5,7,,3,4,2h[4:1],,1,,8,,7,,
{16}65,,4h[8:1],,6,,7,,1-5[8:1]/8,,2,,31,,,,
{16}4b/6b,,7,,56,,8,,46,,7,5,7,5,8,,
{16}35,,2,,34,,1,,35,,2,4,2,4,1,8,
{1}2b-6[8:5]/7,
{8}57,24,1-5[8:1]/8-4[8:1],,1b/8b,,3b/6b,,
{16}1-5[8:1]/7-5[8:1],,,,1b/7b,,,,3h[16:1],4h[16:1],3h[16:1],4h[16:1],3h[8:1],,5h[16:1],4h[16:1],
{16}5h[16:1],4h[16:1],5h[8:1],,3h[16:1],4h[16:1],3h[16:1],4h[16:1],2h[4:1],,5,,6,,7,,
{16}2-4[8:1]/8-4[8:1],,,,2b/8b,,,,7h[16:1],5h[16:1],7h[16:1],5h[16:1],7h[8:1],,3h[16:1],5h[16:1],
{16}3h[16:1],5h[16:1],3h[8:1],,7h[16:1],5h[16:1],7h[16:1],5h[16:1],8h[4:1],,4,,3,,2,,
{16}1-5[8:1]/7-3[32:3],,,,1b/7b,,,,2h[16:1],4h[16:1],2h[16:1],4h[16:1],1h[8:1],,5h[16:1],3h[16:1],
{16}5h[16:1],3h[16:1],6h[8:1],,8h[16:1],7h[16:1],8h[16:1],7h[16:1],1h[4:1],,5,,6,,7,,
{16}2-6[8:1]/8-4[8:1],,,,2b/8b,,,,37,,2,1,2,,4b/8b,,
{16},,56,,35,,74,,2b/8b,,{24}2,3,4,8,7,6,1/5,,,
{16}3b/6b,,,,2h[8:1],,4,3,4,,4,2,4,,1/4h[4:1],,
{16},,2,,34,,45,,5-2[8:1]/6-1[8:1],,,,56,,,,
{16}4h[16:1]/6h[16:1],,4h[16:1]/6h[16:1],,7h[8:1],,5,6,5,,5,7,5,,5h[4:1]/8,,
{16},,7,,46,,35,,24,,{24}3,4,3,4,,,2h[8:1]/5,,,
{16}7h[16:1],8h[16:1],7h[16:1],8h[16:1],6,,3,4,3,,3,4,2,,1/4h[4:1],,
{16},,3,,4h[8:1]/6,,7,,5-1[8:1]/8-4[8:1],,,,8<2[8:2]/5,,,,
{16}6h[4:1],,,,,,,,17,,6,5,7,,6h[4:1]/5,,
{16},,5,,78,,12,,3-7[8:1]/4-8[8:1],,,,3b/4b,,,,
{16}1b-5[8:1]/6,,,,1/2<7[8:1],,,,2/4-8[8:1],,,,24,,1-5[8:1],,
{16},,2<7[8:1]/1,,,,2/4pp3[8:3],,,,4,,3,,2,,
{16}1V35[4:1],,,,5V38[16:4],,,,7-3[8:1],,,,7,,4>1[8:1]*-6[8:1],,
{16},,4-8[8:1],,,,24,,,,3,,46,,7,,
{16}3/8b-4[8:1],,,,7>2[8:1]/8,,,,5-1[8:1]/7,,,,57,,8-4[8:1],,
{16},,8/7>2[8:1],,,,5qq6[8:3]/7,,,,5,,6,,7,,
{16}8-3[8:1],,,,2<7[8:1]/8-4[8:1],,,,28,,,,5,,26,,
{16}1-5[8:1],,7-4[8:1],,1,,7,,1,8,1,8,2b/7,,3,,
{16}8b>3[8:1]/4b-6[8:1],,,,4V28[4:1]/8,,,,4/7-3[8:1],,,,7,,1b<6[8:1],,
{16},,1>4[8:1]/5-1[8:1],,,,1/5qq6[8:3],,,,7,,7,,8,,
{16}1b-5[8:1],,,,4-8[8:1]/1,,,,24,,3,,4,,5/7>3[4:1],,
{16},,3V17[4:1],,4,,5,,,,4,,36,,2,,
{16}1b<6[8:1]/5b-3[8:1],,,,5V71[4:1]/1,,,,5/2-6[8:1],,,,2,,8b>3[8:1],,
{16},,8<5[8:1]/4-8[8:1],,,,8/4pp3[8:3],,,,2,,1,,1,,
{16}8b-4[8:1],,8,,7-3[8:1],,7,,6-2[8:1],,6,,5,,5,,
{16}1b-5[8:1]/4-8[8:1],,,,1b>4[8:1]*<6[8:1]/4,,,,1bw5[8:1],,,,1b,,,,
{16}3-6[8:1]/7v2[8:1],,,,3/7V53[4:1],,,,3V58[4:1],,,1,,,2,,
{16}3h[16:1],,3h[16:1],,2h[16:1],1h[16:1],2h[16:1],1h[16:1],3-5[8:1],,2,,38,,7,,
{16}6v3[8:1]/2-7[8:1],,,,26,,,,2h[16:1],4h[16:1],2h[16:1],4h[16:1],1h[8:1],,6,5,
{16}7,,6,5,7h[16:1],8h[16:1],7h[16:1],8h[16:1],6-4[8:1],,1,1,6,,1,,
{16}2h[64:1],5,4,5,1h[64:1],6,5,6,8h[64:1],7,8,6,1h[16:2],,6,,
{16}2,4,3,4,{24}2b,3,4,{16}5,7,7-5[8:1],,8-4[8:1],,7-3[8:1],,8,,
{16}7b,,,,2-4[8:1]/1-4[8:1],,38,,2b/1b,,,,5qq2[8:4]/6,,7,,
{16}5b/6,,8,,6,,8,,6,,1b,,4b/7b,,,,
{16}46,,3>8[8:1],,,,5-1[8:1],,,,2<7[8:1],,,,4-8[8:1],,4,,1<6[8:1],,,,5-1[8:1],,5,,2,,3,,4,,
{16}56,,6<1[8:1],,,,4-8[8:1],,,,7>2[8:1],,,,5-1[8:1],,5,,8>3[8:1],,,,4-8[8:1],,4,,7,,7,6,5,4,
{16}2b-5[8:1],,2,,6,,7,,8-4[8:1],,8,,3,,2,,1-6[8:1],,1,,8-4[8:1],,8,,5-2[8:1],,5,,7,,7,,
{16}3b/6,,36,,47,,47,,5/8b,,47,,36,,25,,1b/5,,26,,3b/7,,48,,5qq5[16:7],6pp5[16:6],7,8,,,,,,,,E
