&title=Tuatha Dé Danann
&artist=深淵を覗きし者”Gram”
&first=0.045
&des=Royal Flush ”Dee Jay”
&lv_4=13+
&lv_5=14+
&inote_4=(234)
{4},,
{8}2,4,2q5[16:12],,,,
{4},,,
{8}6,,6/5,,7,5,
{4}7p4[16:12],,,
{8}3,,2q6[16:8],,,,
{8},,8-4[16:8],,,,
{8},,1p8[16:12],,,,
{4},,,
{8}5,,4b/6b,,3,3,
{8}5,4,6h[16:8],,,,
{8}5,,5/6,,7,7,
{8}4,,3h[16:8]/5,,,,
{4}6,7<5[4:1],,
{4},1>3[4:1],,
{4},8z4[16:12],,
{4},,,
{8}2b,,8,8h[16:6],,7,
{8}7h[16:6],,6,6h[16:6],,5,
{8}5-1[8:1],,,,2x,2h[16:6],
{8},3,3h[16:6],,4,4h[16:6],
{8},5,5w1[8:1],,,,
{8}7x,7h[16:6],,6,6h[16:6],,
{8}5,5h[16:6],,4,4-8[8:1],,
{8},,1x,1h[16:6],,2,
{8}2h[16:6],,3,3h[16:6],,4,
{8}4w8[8:1],,,,
{4}3bx/5bx,3/6,3/7,
{4}3/8,3/1,3/2,
{4}3/4,4b/6b,6/3,
{4}6/2,6/1,6/8,
{4}6/7,6/5,{8}3,3,
{8}4,2,1h[4:1]/5,,7,7,
{8}8,6,1/5h[4:1],,{16}4,5,4,5,
{1}4bhx[16:24],{4},,8<8<5[16:52],,
{1}Ch[16:48],,,,
{8}2,2,4h[4:1],,3,3,5h[4:1],,
{8}4,4,6h[4:1],,5,5,7h[4:1],,
{8}1,1,8,8,1/8,1/8,1/8,1/8,
{8}2h[16:8]/7h[16:8],,,,,,1b/8b,,
{8}2-4[12:1],2,8-6[12:1],,1-5[8:1],,8,8h[16:14],
{8},4,,3,3,2,2,,
{8}7-5[12:1],7,1-3[12:1],,8-4[8:1],,1,1h[16:14],
{8},5,,6,6,7,7b,,
{8}2-4[12:1],2,8-6[12:1],,1-5[8:1],,8,8h[16:14],
{8},4,,3,3,2,2,,
{16}6,,6,,3,,3,,5,4,5,4,5b,,,,
{4}6x-8[8:1]/5x-1[8:1],,3x-1[8:1]/4x-8[8:1],,
{8}7bx,,4/5,4h[8:1]/5h[8:1],,1h[8:1]/3h[8:1],,4h[8:1]/5h[8:1],
{8},1h[8:1]/3h[8:1],,4h[8:1]/5h[8:1],,1/3,1b/3b,,
{8}4/5,4h[8:1]/5h[8:1],,6h[8:1]/8h[8:1],,4h[8:1]/5h[8:1],,6h[8:1]/8h[8:1],
{8},4h[8:1]/5h[8:1],,6h[8:1]/8h[8:1],,4/5,4b/5b,,
{8}3-8[8:1],3,5-1[8:1],5,4-2[8:1],4,,,
{8}8-4[8:1],8,2-6[8:1],2,8w4[8:1],,8b,,
{8}2hx[8:1],6h[8:1],3h[8:1],7h[8:1],4hx[8:1],8h[8:1],3h[8:1],7h[8:1],
{1}2p4>8[16:12]b,B6/B7/E7f,B2/B3/E3f,
{16}3,,3,,6,,6,,4,5,4,5,4b,,,,
{1}Chf[4:3],
{12}3x,,2x/4x,,2x/4x,,2x-5[8:1]/4x,,,,,,
{12}6x,,7x/5x,,7x/5x,,7x-3[8:1]b/5x,,,,,,
{12}1x,,2x/8x,,2x/8x,,2x-6[8:1]/8x-4[8:1],,,,,,
{1}3b/7b-5v8[16:8],
{12}7x,,6x/8x,,6x/8x,,6x-1[8:1]/8x,,,,,,
{12}2x,,3x/1x,,3x/1x,,3x-7[8:1]b/1x,,,,,,
{12}5x,,6x/4x,,6x/4x,,6x-2[8:1]/4x-8[8:1],,,,,,
{16}3bV51[16:8]/7b,,,,,,,,,,,,8b,,,,
{4}7-3[8:1],8,1-5[8:1],2,
{4}3-7[8:1],4,5-1[8:1],6,
{4}7-3[8:1],8,1-5[8:1],2s6[2:1]b,
{2},7b,
{16}8hx[16:6],,,5,,,5,,7hx[16:6],,,4,,,4,,
{16}6hx[16:6],,,3,,,3,,5hx[16:6],,,2,,,2,,
{16}6,,6,,3,,3,,5,4,5,4,5b,,,,
{4}7/3h[8:1],8/2h[8:1],1-4[8:1]*-6[8:1],,
{1}5xp4>5[48:96],,
{4},,,,,
{4}5,6h[16:8]/4,4,
{4}4,5h[2:1]/3,,
{4}2,3h[2:1]/4,4,
{4}4,5^8[16:4],,
{4}3,2h[2:1],8,
{4}8,7h[2:1],1,
{4}1,1/8,1/2,
{4}2-7[16:4]/3-6[16:4],,,
{4}C,3h[16:8]/5,5,
{4}5,4h[2:1]/6,,
{4}7,6h[2:1]/5,5,
{4}5,4^1[16:4],,
{4}6,7h[2:1],1,
{4}1,2h[2:1],8,
{4}8,8/1,8/7,
{4}7-2[16:4]/6-3[16:4],,,
{4}Cf,1bx>7[16:12],,
{4},8h[2:1],,
{4},1<3[16:12],,
{4},8h[2:1],,
{4},2>4[4:1],,
{4},8<6[4:1],,
{4},1s5[16:12],,
{4},,,
{4}7,8b<2[16:12],,
{4},1h[2:1],,
{4},8>6[16:12],,
{4},1h[2:1],,
{4},7h[4:3],,
{4},5h[4:3],,
{4},4h[4:3],,
{4},2h[4:3],,
{4},{1}8bw4[16:36]b,,
{4},,,
{8}Cf,,2-5[8:1],2,1-4[8:1],1,
{8}8<2[16:5],,8x/5x,,,,
{8}7b,,8-3[8:1],8,2-5[8:1],2,
{8}1<3[16:5],,1x/4x,,,,
{8}2b,,{16}2,4,2,4,{8}3x,,
{8}3/4,,{16}6,5,6,5,{8}7x,,
{8}4/8,,5/7,5/7,6/4,6/4,
{8}3x/5xw1[16:2],,B5f/E5/E6,,,,
{8}2b/8b,,7-4[8:1],7,8-5[8:1],8,
{8}1>7[16:5],,1x/4x,,,,
{8}2b,,1-6[8:1],1,7-4[8:1],7,
{8}8>6[16:5],,8x/5x,,,,
{8}7b,,{16}7,5,7,5,{8}6x,,
{8}6/5,,{16}3,4,3,4,{8}2x,,
{16}1/5,,,,1,2,3,4,5,6,7,8,
{16}1,2,3,4,5hx[2:1]/6b,,,,,,,,
{8}7-4[8:1],,1b,,2,2,
{8}2,2,2,2,{16}2x,3x,2x,3x,
{8}2bx,,5,5,5,5,
{8}5,5,5,5,{16}5x,4x,5x,4x,
{8}5bx,,6x/5x,6/5,8/7,8/7,
{8}1/6,,2x/1x,2/1,4/3,4/3,
{8}5/2,,8x/2x,8/2,8/2,8/2,
{8}8/2,8/2,2x/8xw4[8:1],,,,
{8}6bx/2bx,,{16}3,4,3,4,3,4,3,4,
{16}3,,,,6,5,6,5,6,5,6,5,
{16}6,,,,1,8,1,8,1,8,1,8,
{16}1,8,1,8,1,8,1,8,1,8,1,8,
{8}1b,,{16}B8,B7,B6,B5,B4,B3,B2,B1,
{16}B8,,,,E3,E4,E5,E6,E7,E8,E1,E2,
{16}E3,,,,A8,A7,A6,A5,A4,A3,A2,A1,
{16}A8,A7,A6,A5,Cf,,,,,,,,
{4}1x/8x,{8}2,2h[16:6],,3,3h[16:6],,4,4h[16:6],
{8},5,5h[16:6],,6,6h[16:6],,7,
{8}7h[16:6],,8,8h[16:6],,1,1-5[8:1],,
{16},,,,3,4,3,,,,6,5,6,,,,
{16}3,4,3,,,,6,5,6,,,,3x/4,,3/4x,,
{16}5/2x,,6x/1,,8x/7h[16:6],,,,1,2,3,4,5,6,7,8,
{8}1b/5b,,,,3b/7bw3[16:60],,,{1},,,,,E
&inote_5=(234)
{4},,{8}E7,E6,
{8}E5,,A7,A6,A5,A4,
{8}A3,,,,C,,
{12}B3/B2,,,B7,B6,B5,E5,,,
{8}B2/E2,,,,E7,C,
{4}E3/D3,E4,E5,
{16}E6,D6,{8},E7,,E8,,
{12}E1/D1,,,B2,B3,B4,E5,,,
{4}C,,
{8}3,4,5bh[16:8],,2,3,
{8}4,5,6h[16:8],,,,
{8}4,,4/5,,{12}3,4,3,
{8}4V61[16:6],,2h[16:8],,,,
{4}8,8<6[4:1],6>4[4:1],
{4}3,1>3[4:1],3<5[4:1],
{4}6,8,1/7,
{4}2/6,3q8[16:6]/5p8[16:6],,
{8},,2x/6x,2/6,,4/7,
{8}4/7,,1/5,1/5,,3/8,
{8}3-6[8:1]/8-5[8:1],,,,3/7,3/7,
{8},2/5,2/5,,4/6,4/6,
{8},2/4,2-4[8:1]/4-1[8:1],,,,
{8}5/7,5/7,,1/5,1/5,,
{8}4/7,4/7,,3/5,3-8[8:1]/5-8[8:1],,
{8},,2/6,2/6,,4/8,
{8}4/8,,1/5,1/5,,3/7,
{8}3-7[8:1]/7-3[8:1],,Cf,,1b,5,
{8}1,5,1h[16:4],,6,1,
{8}6,1,6h[4:1],,2x,,
{8}3b,7,3,7,3h[4:1],,
{8}8,3,8,3,8h[4:1],,
{8}4x,,7/5,7,6/4,6,3/5,,
{16}2/4,,2,,3/5,,3,,4/6,,,,5,4,5,4z8[16:12],
{1}5s1[16:11],
{4},,1bh[4:1]/8bh[4:1],,
{384}1x<8V27-3-6-4<5-3-6-2-7-1[16:52],8x<1[16:52]b,,,,,,,,,,,{32}B1/B8/E2/E8/Cf/E5,,,,,,,{4},,,
{1},,,
{8}8^5[8:1],5,8,,1^4[8:1],4,1,,
{8}7-3[8:1],5,7,,1-5[8:1],5,1,,
{8}8/4,8,7/3,7,6/2,6,5/1,5,
{4}B1/B2/E2f,B5/B6f,Cf,2b/7b,
{16}1/8,,7,8,7,,2,1,2q6[8:1],,,,1,,1-5[8:1],,
{16},,8>5[16:4],,,,7,,7V15[16:4]b,,,,,,,,
{16}2x,,3,4,3,,6,5,6q2[8:1],,,,5,,5-1[8:1],,
{16},,4<1[16:4],,,,3,,3p5[16:3]b,,,,,,,,
{16}8x,,2,1,2,,7,8,7p3[8:1],,,,8,,8-4[8:1],,
{16},,1<4[16:4],,,,2,,2q5[16:4]b,,,,,,,,
{8}7,7,5x/6,5/6x,4,4,3x/5,3/5x,
{2}2-6[12:1]/6-1[12:1],7-4[12:1]/3-8[12:1],
{8}1b-5[8:1]/5b,,6,6-1[8:1],,3-6[8:1],,7-3[8:1],
{8},1-4[8:1],,5-8-2[16:4]b,,3,3b,,
{8}4,4-8[8:1],,7-4[8:1],,2-7[8:1],,6-2[8:1],
{8},4-1[8:1],,8<3[16:4]b,,2,2b,,
{8}1-5[8:1],3,1,4,2-5[8:1],1,2,,
{8}8-4[8:1],6,8,5,7-4[8:1],8,7,,
{8}1/5,1,2/6,2,3/7,3,4/8,4,
{16}8,1,2,3,4,5,6,7,8,1,2,3,4,5,6,7,
{1}8bpp5[16:8]/B2/B3/E3f,3bpp8[16:8]/B6/B7/E7f,
{16}6h[16:1]/1h[16:1],,6h[16:1]/1h[16:1],,7h[16:1]/1h[16:1],,7h[16:1]/1h[16:1],,1h[16:1]/8h[16:1],,1h[16:1]/8h[16:1],,1h[16:1]/8h[16:1],,1h[16:1]/8h[16:1],,
{8}1x,2x,3x,4x,5x-1[8:1],6x,Cf,,
{32}2bx,3,4,5,,,2bx,3,4,5,,,2bx,3,4,5,,,2bx,3,4,5,,,1b,,,,,,,,
{32}7bx,6,5,4,,,7bx,6,5,4,,,7bx,6,5,4,,,7bx,6,5,4,,,8b,,,,,,,,
{32}1bx,2,3,4,,,1bx,2,3,4,,,1bx,2,3,4,,,1bx,2,3,4,,,1b,,,,,,,,
{16}1x/8x,,7,5,7,,2,4,3,5,4,6,1b,,,,
{32}1hx[12:1]/6bx,5,4,,,,1h[12:1]/6bx,5,4,,,,1h[12:1]/6bx,5,4,,,,1h[12:1]/6bx,5,4,,,,B2f/B3f,,,,,,,,
{32}8h[12:1]/3bx,4,5,,,,8h[12:1]/3bx,4,5,,,,8h[12:1]/3bx,4,5,,,,8h[12:1]/3bx,4,5,,,,B6f/B7f,,,,,,,,
{32}3b,4,5,,,,6b,5,4,,,,3b,4,5,,,,6b,5,4,,,,Cf,,,,,,,,
{16}7hx[16:1]/2hx[16:1],,2/7,,3h[16:1]/6h[16:1],,3/6,,4h[16:1]/5h[16:1],,4/5,,2b/7b,,,,
{16}7-3[8:1],,,8h[384:1],,,1,,2-5[8:1],,E1,,2x,,,,
{16}6-2[8:1],,,5h[384:1],,,4,,3-8[8:1],,B4,,3x,,,,
{16}5-1[8:1],,,4h[384:1],,,3,,2-6[8:1],,E8,,2x,,,,
{4}7V58[16:5]*V52[16:5],,A2/A1f/A8/D1/D2/E1/E2/B1,,
{16}3bh[16:6]/B5f,,,6,,,7,,8bh[16:6]/B1f,,,2,,,3,,
{16}7h[16:3],,,4h[16:3],,,5h[16:1],,2h[16:3],,,5h[16:3],,,4h[16:1],,
{16}3hx[16:1]/7hx[16:1],,3h[16:1]/7h[16:1],,2h[16:1]/8h[16:1],,2h[16:1]/8h[16:1],,1h[16:1],,1h[16:1],,1h[16:1],,1h[16:1],,
{4}1w5[8:1],1^4[8:1]*^6[8:1],1-5[8:1],Cf,
{48}8,,,,,,,,7,,,,,,,,6,,,,,,,,5,,,,,,,,4,,,,,,,3,,,,,,2,,,,,,1,,,,,,8,,,,,,7,,,,,6,,,,5,,,,4,,,,3,,,,2,,,1,,,8,,,7,,,6,,5,,4,,3,,2,,1,,
{1}8b,
{8}E3,E4,E5,,A2,A3,
{8}A4,A5,A6,,,,
{8}C,,B6/B7,,{12}B2,B3,B4,
{8}E5,,B7/E8,,,,
{8}E3,C,E7/D7,,E6,,
{4}E5,{16}E4,D4,,,{4}E3,
{4}E2,E1/D1,{12}B7,B6,B5,
{4}E5,C,,
{8}6,5,4h[16:8],,7,6,
{8}5,4,3h[16:8],,,,
{8}5,,5/4,,{12}6,5,6,
{8}5V38[16:6],,7h[16:8],,,,
{4}1,1>3[4:1],3<5[4:1],
{4}6,8<6[4:1],6>4[4:1],
{4}3,1pp4[16:12]*qq6[16:12],,
{4},,,
{4}4x/6x,
{8}3/5bh[16:6],,3,4,5,6,
{4}7-5^2[12:5],,1,
{12}1h[12:5],,,3,4,5,{8}6^3q7[16:8],,
{4}2h[12:6],,,
{4}8-6[4:1],6v4[16:5],,
{4}1-3[4:1],3v5[16:5],,
{4}7^4[4:1],4^1[4:1],1<5[16:6]*p4[16:6],
{4},,3,
{8}6/4bh[16:6],,6,5,4,3,
{4}2-4^7[12:5],,8,
{12}8h[12:5],,,6,5,4,{8}3^6p2[16:8],,
{4}7h[12:6],,,
{8}4/8,,4h[4:1]/8h[2:1],,,,
{8}3,,7h[2:1]/3h[4:1],,,,
{8}2,,6h[2:1]/2h[4:1],,,,
{8}1,,5h[2:1]/1h[4:1],,,,
{1}Chf[16:44],,{4},,,{32}E3/E7/D3/D7,,,,,,,,
{8}8b-3[8:1],2,8^5[8:1],4,8,1,
{16}1,2,3,4,5,6,{32}A1,D2,A2,D3,A3,D4,A4,D5,A5,,,,
{8}1-6[8:1],7,1^4[8:1],5,1,8,
{16}8,7,6,5,4,3,2/6-2[8:1]b,1,8,7,6/4,,
{16}1bx^4[8:1],,,,5-1[8:1],6,7,8,5x,,,,
{8}8xw4[8:1],,8x,,2x/6x,,
{16}4b/8b,,6,5,6,,4,5,4,,6,4,
{16}6,3,6,2,{32}6x,5x,4x,3x,2x,1x,8x,7x,6x/2b,,,,,,,,
{8}1b-6[8:1],7,1^4[8:1],5,1,8,
{16}8,7,6,5,4,3,{32}A8,D8,A7,D7,A6,D6,A5,D5,A4,,,,
{8}8-3[8:1],2,8^5[8:1],4,8,1,
{16}2,3,4,5,6,7,8/4,1/5,2/6,3/7,4/8,,
{16}8bx^5[8:1],,,,4-8[8:1],3,2,1,4x,,,,
{16}1xw5[8:1],,,,1x,,,,3x/7x,,,,
{16}8b/4b,7,6,5,8/4,1,2,3,8/4,7,6,5,
{4}4/1<4v6[16:6]b,,,
{8}8^3[8:1],8,6-2[8:1],6,7-4[8:1],7,
{8}1,1,{24}8x,7x,6x,5x,4x,3x,2b,,,,,,
{8}1^6[8:1],1,3-7[8:1],3,2-5[8:1],2,
{8}8,8,{24}7x,6x,5x,4x,3x,2x,1b,,,,,,
{8}4/8,4/8,7,7,6,6,
{24}2,3,4,5,4,3,2,1,8,7,6,5,4b/8-4[8:1],,,,,,
{8}8b/2-5[8:1]/8,2,7-4[8:1],7,1-5[8:1],1,
{8}8-4[8:1],8,2-6[8:1]b,2,8x,,
{16}7b,,1,5,1,5,1,5,2,4,2,4,
{16}2,4,3,3x,3,3x,3,3x,2bx/4bx,,,,
{16}3b/1b,,8,4,8,4,8,4,7,5,7,5,
{16}7,5,6,6x,6,6x,6,6x,5bhx[4:1]/7bx,,,,
{24}8b,1,2,3,4,5,{24}8,1,2,3,4,5,6hx[12:3]/8x,,,,,,
{24}1b,8,7,6,5,4,{24}1,8,7,6,5,4,3hx[4:1]/1x,,,,,,
{32}8bx,7,6,5,4,3,2,1,8b,7,6,5,4,3,2,1,8b,7,6,5,4,3,2,1,
{4}8bV63[4:1]/4bV27[4:1],,
{8},,4x/8x,4/8,,2/6,2/6,,
{8}5/7,5/7,,5/2,5/2,,4/6,4/6,
{8},3/5,3/5,,4/7,4/7,,1-5[8:1]/5,
{8}1/5-1[8:1],,,,3hx[16:1]/7hx[16:1],3/7,,2h[16:1]/5h[16:1],
{8}2/5,,4h[16:1]/8h[16:1],4/8,,3h[16:1]/5h[16:1],3/5,,
{16}5b,,4/6,,4/6,,3/7,,3/7,,2/8,,
{32}2/8,,,,2,3,4,5,2,3,4,5,4x/6x,3x/7x,2x/8x,1hx[2:1],{2},
{384}A2f/A8f,,,,,,,,D3,D8,,,,,,,,A3,A7,,,,,,,,D4,D7,,,,,,,,A4,A6,,,,,,,,D5,D6,,,,,,,,5x>5-8[64:231]b*<5p8[64:231]b,,,,,,,,{32},,,
{1},,,,,E
