&title=地の色は黄色
&artist=Akiyama Uni
&first=0
&des=xxhb
&lv_5=13+
&inote_5=(144)
{1}
,
{16}
,
4h[8:1]/2h[8:1],,,,6h[8:1]/8h[8:1],,,,
6v1[8:1]/4-1[8:1],,,46,,,,,
7h[8:1]/1h[8:1],,,,5h[8:1]/3h[8:1],,,,
8/1>4[8:1]*<6[8:1],,,,,,,,
5h[8:1]/7h[8:1],,,,3h[8:1]/1h[8:1],,,,
3v8[8:1]/5<8[8:1],,,53,,,,,
2h[8:1]/8h[8:1],,,,4h[8:1]/6h[8:1],,,,
71,,6,,5,,4,,
1b/3h[8:1],,2,,
3h[16:1]/4h[16:1],,5h[16:1]/4h[16:1],,6h[16:1]/5h[16:1],,4h[16:1]/5h[16:1],,
2h[16:1]/4h[16:1],,4h[16:1]/5h[16:1],,57,,75,,
6h[16:1]/8h[16:1],,1h[16:1]/8h[16:1],,1h[16:1]/3h[16:1],,25,63,7/4h[4:1],,,,
5,,45,,3h[16:1]/4h[16:1],,4h[16:1]/1h[16:1],,1h[16:1]/2h[16:1],,7h[16:1]/4h[16:1],,
1h[16:1]/8h[16:1],,74,63,5h[16:2]/2,,
8,2,4/5h[8:1],,8,2,4/6h[8:1],,8,2,4-8[8:1]/7h[8:1],,8,2,4b/8,,,,,,8h[16:1]/7h
[16:1],,7h[16:1]/6h[16:1],,5h[16:1]/6h[16:1],,4h[16:1]/5h[16:1],,3h[16:1]/4h
[16:1],,
3h[4:1]/2,1,8,7,6h[4:1],4,3,2,1h[8:1],,,8h
[8:1]/2h[8:1],,,3h[16:1]/7h[16:1],,6h[8:3]/4h[16:1],,3h[16:1],,2b,,1,72,3h[8:3]/6h[16:1],,7h
[16:1],,8b,,1,82,7h[8:3]/3h[16:1],,2h[16:1],,1b,,8,15,2h[8:3]/4b,,1b,,8b,,7b,,
5b/7h[8:1],,8,,
6h[16:1]/7h[16:1],,3h[16:1]/5h[16:1],,3h[16:1]/2h[16:1],,6h[16:1]/4h[16:1],,
7h[16:1]/5h[16:1],,5h[16:1]/4h[16:1],,42,,24,,
2h[16:1]/3h[16:1],,5h[16:1]/4h[16:1],,6h[16:1]/7h[16:1],,81,27,3/6h[4:1],,,,
1,,81,,7h[16:1]/8h[16:1],,2h[16:1]/5h[16:1],,1h[16:1]/2h[16:1],,4h[16:1]/7h[16:1],,
5h[16:1]/4h[16:1],,27,36,4h[16:2]/5,,
1,7,5/4h[8:1],,1,7,5/3h[8:1],,1,7,5-1[8:1]/2h[8:1],,1,7,5b/1,,,,,,
1h[16:1]/2h[16:1],,2h[16:1]/3h[16:1],,4h[16:1]/3h[16:1],,5h[16:1]/4h[16:1],,6h[16:1]/5h
[16:1],,
6h[4:1]/7,8,1,2,3h[4:1],5,6,7,8h[8:1],,,1h
[8:1]/7h[8:1],,,6h[16:1]/2h[16:1],,3h[8:3]/5h[16:1],,6h[16:1],,7b,,8,27,6h[8:3]/3h[16:1],,2h
[16:1],,1b,,8,17,2h[8:3]/6h[16:1],,7h[16:1],,8b,,1,84,7h[8:1]/5h[8:1],,,8h[8:1]/3h[8:1],,,1h[16:1]/6h[16:1],,
4h[4:4]/1b,,,,7h[8:1],,,5h[8:1],,,3h[8:1],,,1h[16:1],,,1<6[4:1],,,,,,3,,4>1[4:1],,,,,,6,,7<4[4:1],,,,1,,2,,3qq4[8:3],,,6,,,7,,8qq1[8:3],,,,2,,3,,4q5[8:2],,,,6,,7,,
8h[16:3],,,,1h[8:1]/7h[8:1],,,6h[16:2]/2h[8:1],,,3h[8:1]/5h[8:1],,,4h[8:1],,,
6<1[4:1],,,,,,3,,4p8[4:1],,,,,,6,,5q1[4:1],,,,,,3,,2V48[8:2],,,5,,,6,,7>2[4:1],,,5,5,,4,,3h[8:3],,,5,5,,6,,
2<7[4:1]/7,,,,,,5,,6q2[4:1],,,3,3,,4,,8>3[4:1],,,5,5,,6,,5<8[4:1],,,4,4,,3,,2>5[4:1],,,8,8,,7,,6V84[16:5],,,3,3,,2,,1p8[4:1],,,,4,,5,,6h[8:1],,
{32}1,2,3,4,5h[8:1]/7,,,,
{16}
4h[8:1],,
2>5[4:1],,,,,,7,,8p4[4:1],,,1,1,,2,,3>8[16:3],,,7,7,,6,,5q1[16:3],,,2,2,,3,,4p8[16:3],,,6,6,,5,,4<7[8:1],,,2,2,,3,,4h[8:1]/8,,
{32}
1,8,7,6,2h[8:1]/5b,,,,8,7,6,5,2b/4b,,,,{16},,
1/5,26,3/7,84,
5h[16:7]/1b,,,7,7,,,4,4h[16:1]/5h[16:1],,3h[16:1]/4h[16:1],,3h[16:1]/1h[16:1],,
2h[16:1]/8h[16:1],,1h[4:1]/7,,3,,
{32}
2b,1,8,7,64,,,,35,,,,
{16}
12,,8/3,,7/4,,
6b/5h[16:7],,,7,7,,,6,4h[16:1]/6h[16:1],,3h[16:1]/5h[16:1],,
7h[16:1]/8h[16:1],,1h[16:1]/6h[16:1],,2h[4:1]/5,,3,,
{32}
4b,5,6,7,82,,,,
3b/8,2,1,8,7,6,5,4,
{16}
37,,28,,
1h[16:7]/5b,,,3,3,,,8,8h[16:1]/1h[16:1],,7h[16:1]/5h[16:1],,1h[16:1]/8h[16:1],,
2h[16:1]/4h[16:1],,1/8h[4:1],,6,,
{32}
7b,8,1,2,35,,,,46,,,,
{16}
87,,1/6,,2/5,,
3b/4b,,3h[16:1]/2h[16:1],,2h[16:1]/1h[16:1],,2h[16:1]/4h[16:1],,
6b/5b,,6h[16:1]/7h[16:1],,7h[16:1]/8h[16:1],,7h[16:1]/5h[16:1],,
2b/4b,,1h[16:1]/8h[16:1],,7b/5b,4,31,8,7h[16:1]/5h[16:1],,4h[16:1]/6h[16:1],,3b/5,2,17,6,
5h[16:7]/3b,,,6,6,,,1,1h[16:1]/5h[16:1],,3h[16:1]/4h[16:1],,8h[16:1]/4h[16:1],,6h[16:1]/5h[16:1],,1h[8:1]/5,,3,,
{32}
8b/5b,16,27,38,4/1h[8:1],,,,4,,,,
{16}
78,,52,,16,,
4h[16:7]/3b,,,6,6,,,8,8h[16:1]/4h[16:1],,1h[16:1]/5h[16:1],,2h[16:1]/6h[16:1],,3h[16:1]/7h[16:1],,8h[16:2]/4,,2,,
{32}
1b/4b,25,36,74,8/5,,,,5b/8,4,3,2,1,8,7,6,5/7,,,,
{16}
84,,
1b/3h[16:7],,,5,5,,,1,1h[16:1]/3h[16:1],,4h[16:1]/8h[16:1],,8h[16:1]/6h[16:1],,1h[16:1]/5h[16:1],,2h[16:2]/4,,3,,
{32}
1b/4b,83,27,16,58,7,6,5,48,,,,
{16}
37,,26,,15,,
6b/5b,,6h[16:1]/7h[16:1],,7h[16:1]/8h[16:1],,7h[16:1]/5h[16:1],,
3b/4b,,3h[16:1]/2h[16:1],,2h[16:1]/1h[16:1],,2h[16:1]/4h[16:1],,
7b/5b,,8h[16:1]/1h[16:1],,2b/4b,5,68,1,2h[16:1]/4h[16:1],,5h[16:1]/3h[16:1],,6b/4,7,82,3,
4h[16:1],6h[16:1],8h[16:1],5h[16:1],3h[16:1],1h[16:1],4h[16:1],6h[16:1],2h[16:1],7h[16:1],3h[16:1],5h[16:1],2h[16:1],6h[16:1],4h[16:1],8h[16:1],
3h[16:1],5h[16:1],1h[16:1],6h[16:1],4h[16:1],8h[16:1],2h[16:1],8h[16:1],4h[16:1],7h[16:1],1h[16:1],5h[16:1],3h[16:1],7h[16:1],2h[16:1],6h[16:1],
1h[128:1],,1h[128:1],,1h[128:1],,1h[128:1],,1h[128:1],,1h[128:1],,1h[128:1],,
2,3,
4/8,7,6/2,5,4/8,3,2/6,1,8b,,7b,,6b,,5b,,
{1}
1b,,
