&title=Mermaid Girl
&artist=DJ Command
&first=-1.21
&lv_5=13+
&des_5=Taxchan
&des=Taxchan
&inote_5=
(150){4},,,,{1}3xqq8[4:5]/7xqq4[4:5],
{4},,,{8}2x,1x,
7b/8b,{16}6,6,{8},3,4,5,{4}6,
{8}2,2,5,5,4,7,{4}4,
{8}1,{16}5,5,,3,{8}3,6,5,{4}4,
{8}2,7,3,8,{2}4w8[8:1],
{16}2b/6b,{8},{16}3/7,{8},4V63[4:1]/8V27[4:1],{2},{16}4bx/8bx,
{8},{16}7/3,{8},6V47[4:1]/2V83[4:1],{2},{4}2b-5[8:1]/6b-1[8:1],
2/6,2b-7[8:1]/6b-3[8:1],2/6,
4h[2:1]/8h[8:5],{2},{16}4x,5x,{8}4x,
3b/6b,{16}7,4,6,5,7,4,{8}6-1[8:1],3,{4}6/5,
{16}3,3,6,4,8,5,6,5,{8}8,7/4,{4}5h[8:1]/6h[8:1],
{8}3/4,{16}1,8,2,8,{8}1,3/5,1/7,{24}1x,2,3,5x,6,7,
{8}1x/8x,{16}2,5,3,4,{8}2,{16}8w4[8:1],1,{8}7,{4}8,
{16}2b,5,2,5,,7,4,7,{8}4-8[8:1],6,{4}4/5,
{16}7,4,7,4,,3,{8}5,2>5[8:1],7,{4}2/1,
{16}7bx,8,6x,1,5x,2,4x,3,1bx,2,8x,3,7x,4,6x,5,
{8}7bx,{16}2x,6x,,7x,{8}3x,{16}1x-5[8:1]/8x-4[8:1],2x/7x,{8}3x/6x,{4}1x/8x,
B7f/B6/E7/E8/E6/B5/B8/C,B3f/B2/E2/E4/C/B1/B4/E3,{2}8xw4[8:1],
{4}2/6,4/8,3/7,1/5,
{8}2/6,3,4/8,7,{4}2,{8}3/7,2,
{4}1/5,4/8,2/6,3/7,
5/7pp5[16:5],7/3,{16}E3,B3,B4,E5,E7,B7,{8}B8,
{4}7x/3x>1[8:1],7,3/7<5[8:1],3,
6x/2x>4[8:1],6x,2x/6x-1[16:1],{32}6x/5x,B4,{16}E3,{8},{4}7/3x-8[8:1],
7,5/1-4[8:1],5,
{8}2-6[8:1],6-2[8:1],2,5,{16}5x,5x,{8}4x,{4}8w4b[16:1],
{32}8b,Cf,{16},,,{8}6,5,4-7[8:1]/2-7[8:1],1,{4}2,
{8},5,1/6,7x-4[8:1]/8x-3[8:1],{4},{8},2,
{4}2/8,5pp5[8:3]*qq5[8:3],{2}5,
{16}3,4,{8}3,{16}6,5,6,5,7,4,{8}7,1>4[8:1],8,
1b/6b-2[8:1],6,5-1[8:1],5,4-8[8:1],4,3,3,
{4}B7f/E8/B8/B1/C/B6/E6,Cf/E5/B2/D5/B4/E3,{8}B2f/B1/E2/A2/B3/E4,{4},{8}1,
{4}1b/8b-4[8:1],8/2-6[8:1],2b/7b-3[8:1],7/1-4[8:1]*-6[8:1],
1bw5[8:1],1b,{16}5x,4x,{8}5x,3x/6x,3x/6x,
1b/7b,{16}3/5,3/5,{8},6/2,7/1-5[8:1],8,{4}1/3,
{8}5x/2-4[8:1],1,2x/7-4[8:1],8,7x/2-5[8:1],1,{4}2x/5x,
{8}4/6,{16}1,8,2,8,{8}1,4/3-8[8:1],6,{4}3/4,
{8}1x/7x,4/5,2x/8x,4/5,{4}1x/8x<6[8:1],{16}1x/8x,2,3,4,
{8}5bx,{16}4/8,4h[16:1]/8h[16:1],{8},1-6[8:1],5-2[8:1],1,{4}5,
{8}2x/7-4[8:1],6,7x/2-5[8:1],3,2x/8-4[8:1],7,{4}8x/4x,
{8}3b/5b,{16}8,1,7,1,{8}8,5b/6b-1[8:1],3,{4}5/6,
{8}7b/4b,{16}5/6,5/6,,4/7,{8}4/7,2x-6b[8:1]/1x-5b[8:1],3x/8x,{4}2bx/1bx,
{8}3b/8b,{16}4,5,2,6,4,5,{8}2,3/8,{4}7/4h[1:1],
{8}A7,A6,B7,E6,B8,B5,C,4x,
6b/1b,{16}5,4,7,3,5,4,{8}7,6/1,{4}2/5h[8:7],
{8}E4,E2,B4,B1,{4}Ch[4:1],{8}6x,6x,
{16}3b,3,6,4,7,5,6,4,{8}8,7/1,{4}6h[8:1]/2h[8:1],
{16}5,5,3,4,2,5,{8}3,2-6[8:1]/8-4[8:1],3/7,{4}2/8,
{16}2bx,1,3,8,4,7,5,6,3bx,4,2,5,1,6,8,7,
{8}2bx,{16}7,8,6,1,{8}7,{16}1x-5[8:1]/8x-4[8:1],2x/7x,{8}3x/6x,{4}1x/8x,
Cf/B7/B6/B2/B3/B5/B4/E7/E3,{8}2,2,6,6,{4}4h[4:1],
{8},7,2,1s5[4:1],{4},{8},8,
{4}8<5[8:3],6>3[8:3],4>1[8:3],2<5[8:5],
8>4[8:3],{2},{4}Cfh[4:1],
5x,5,5,5/2-4[16:1],
2/1-5[8:1],1/8-6[16:1],{8}8/4,{4},{16}4,5,
{8}3x,3,6,6,{16}2x,7,2,7,1,8,1,8,
{4}1b>4[8:1]*<6[8:1],1b-5[8:1]*>1[8:3],{2}1b,
4xh[8:3],{16}5,4,5,4,5,4,{8}5,
8b/2b,{16}6/4,6/4,{8},3/7,2/8-4[8:1],1,{4}8/6,
{8}4x/7-5[8:1],8,7x/2-5[8:1],1,2x/7-4[8:1],8,{4}7x/4x,
{8}5/3,{16}8,1,7,1,{8}8,5/6-1[8:1],3,{4}6/5,
{8}8x/2x,5/4,7x/1x,5/4,{4}8x/1x>3[8:1],{16}8x/1x,7,6,5,
{8}4bx,{16}5/1,5h[16:1]/1h[16:1],{8},8-3[8:1],4-7[8:1],8,{4}4,
{8}7x/2-5[8:1],3,2x/7-4[8:1],6,7x/1-5[8:1],2,{4}1x/5x,
{8}6b/4b,{16}1,8,2,8,{8}1,4b/3b-8[8:1],6,{4}4/3,
{8}2b/5b,{16}4/3,4/3,,5/2,{8}5/2,7x-3b[8:1]/8x-4b[8:1],6x/1x,{4}7bx/8bx,
{8}3bx/4bx,{16}2,5,3,4,2,5,{8}3-8[8:1],6,{4}3/4,
{16}6,6,3,4,1,5,3,4,{8}1,2/5,{4}4h[8:1]/3h[8:1],
{8}6/5,{16}8,1,7,1,{8}8,6/4,8/2,{24}8x,7,6,4x,3,2,
{8}8x/1x,{16}7,4,6,5,{8}7,{16}1w5[8:1],8,{8}2,{4}1,
{16}7b,8,6,5,,2,1,3,{8}4-8[8:1],2,{4}4/6,
{16}6,5,7,8,,6,{8}4,7<4[8:1],2,{4}7/8,
{16}2bx,1,3,8,4,7,5,6,8bx,7,1,6,2,5,3,4,
{8}2bx,{16}7x/3x,3x/7x,,2x/6x,{8}6x/2x,{16}1x-5[8:1]/8x-4[8:1],7x/2x,{8}6x/3x,{4}8x/1x,
{1}Cf/B7/B2/E8/B8/B1/E2/E7/E3/E1/B6/B3,
