&title=Cosmica
&artist=Nhato
&first=0.01
&des=Rhythlame
&lv_5=14
&des_5=Rhythlame
&inote_5=
(110){4},,{2}4>8[2:1],
{8}8<4[2:1],,,1,{24}8,,,,,7,,,,{8}5h[4:1]/6<1[4:1],
,,,3,{24}8/4qq1[2:1],,,,,7,,,,{8}6h[8:3],
,,,5<5[8:5],{2}3h[2:1],
{4},3,{2}6<3[2:1],
{8}3<8[2:1],,,1,{24}2,,,,,3,,,,{8}7/4>1[4:1],
,8,,7,{24}6/8qq5[2:1],,,,,1,,,,{8}2,
,3h[4:1],,6h[1:1],{2}5h[4:3],
{24},,,,,,,,,,2,3,{4}8x/4h[2:1],8,
8,{24}7/4h[24:5],,,,,6h[24:13],{4}5,5,
{8}5,{24}4,5,3,4,2,5,3,6,4,{8}7h[24:5],{24}5,,5pp4[24:7],,,,{8}4,
{4}3h[8:1],{12}2,{24}1,8,,8,7h[24:5],,,,,5h[6:1],,,,{8}4h[8:1],
,6/3qq4[4:1],{24},,,5,6,7,8h[24:5],,,,,5h[24:7],,,,{8}3>6[4:1],
,4,3,2,{4}1h[4:1]/5<2[4:1],{8}5,3,
,2h[8:1]/3pp2[4:1],{24},,,1,8,7,{8}6h[8:3],{24},,,,,,4h[12:1],,5h[6:1],
,,,3h[12:1],,6h[6:1],,,,{8}4h[12:1],{12}7,{24}3,4,,,{12}2,{24}6,5,,,{12}4/3,
{24}4,5,,5,{12}6,{24}6,7,,,{4}8,8,
8,{8}8/B2,C,{4}8/B6,4h[8:1]/B8,
4h[8:1]/B6,{8}5h[8:1]/B2,C,5/3,4,7/5,6,
{12}4/2,{24}3,5,,2,{12}6,{24}1,7,,2,8h,4,5,4,5,4,7h,3,4,3,4,3,
{4}6b,{8}3bV51b[6:1]/6bV48b[6:1],7b/2b,{4}A6f/A3f,{8}7-3[12:1],6/3-7[12:1],
7,1s5[8:1],8b,4b,6,{24}4,,5,{12}3-8[12:1],{24}5,7-2[12:1],,5,
{8}3-6b[12:1],7-4b[12:1],A3f,A7f,1V35[8:1],6,1/5,{24}7,8,1,
{8}2,5/B2/E3,4/C,5/B7/E7,{12}3h,{24}8-4[8:1],1,,,{12}7h,{24}1-5[8:1],8,,,{12}2h,
{24}8,1,,,{8}4bw8b[12:1],6b/2b,{4}A4f/D5/D4,{8}1-5[12:1],8-5-7[6:1],
1xpp8b[24:5],8x,1x,7,5h[8:1],4,{12}2-7[12:1],{24}4,6-1[12:1],,4,
{8}2-5b[12:1],6-3b[12:1],A2f,A6f,{12}1x,{24}3x,1x,,3,{12}2,{24}3,1,,3,
{12}2,{24}4,3,,5,{12}4,{24}6,5,,7,{12}6,{24}7,6h[12:1],,7h[12:1],{12}6h[24:1],{24}7h[24:1],6h[12:1],,7h[12:1],
{12}6h[24:1],{24}7h[24:1],6h[12:1],,8h[12:1],{8}5bw1b[12:1],3b/7b,{4}D5/D6/A5f,6<2[4:1],
2qq5[8:3],{8}4,5>7[3:1],{24}4,,,,,7pp6[24:7],,,,{8}3xh[8:3],
{24},,,,,,,,,4,5,3,{8}4q8[8:1],{24}3,,4xh[8:1],,,,,,,{8}5>6[4:1],
{24}6,,5xh[8:1],,,,,4,3,{4}2h[4:1],{8}6,{24}3,,6,
{12}5,{24}5,4,,4,{12}3,{24}3,2,,,{4}5/1>5[4:1],5<1[4:1],
1qq4[3:1],{12}5,4>7[8:3],{24},,5x,6,{12}7,{24},7pp6[24:7],,,,{8}6,
{24}6x,5,{12}4h[6:1],{48},,,,,,,,,,{16}5,6,{24}7/4>7[24:5],,,,,6,{4}5h[8:1],
{24}5<2[6:1],,,,,3,{4}4h[8:1],{24}5/3,,,,,B4/E5/A4,,,B8/E1/A8,,,D3,
{12}E2,{24}D7,E6,,Cf,,,,,7x,6x,{4}5xh[2:1],1,
1,{24}2/5h[24:5],,,,,3h[24:13],{4}4,4,
{8}4,{24}5,4,6,5,7,4,6,3,5,{8}2h[24:5],{24}4,,4qq5[24:7],,,,{8}5,
{4}6h[8:1],{12}7,{24}8,1,,1,2h[24:5],,,,,4h[6:1],,,,{8}5h[8:1],
{12}4,{24}3,6/2,,,5,6,7,4/8,3,2,5b/1h[24:5],,,,,4h[24:7],,,,{8}6<3[4:1],
,5,6,7,{4}8h[4:1]/4>7[4:1],{8}4,6,
,5/7h[8:1],{24},,,8/6,1,2,{8}3/5b,4,7/5b,6,
{12}2/4b,{24}3,5,,2,{12}6,{24}1,7,,8,2h,6,5,6,5,6,1h,5,4,5,4,5,
8w4b[12:1],4,3,4,3,4,{4}8b,{8}2/6,5/3,{24}1b/7b,2/6,{6}3/5h[8:1],
{8}2V86[8:1],6v1b[8:1]*V42b[8:1],,,,4x/8x,{24}7b-3[12:1]/3b-7[12:1],6/2,{6}5/1,
{24},,,,,8bxh[8:1]/4bxh[8:1],,,,{8}2h/6h,7/3,4/6,{24}8b/2b,7/3,{6}6/4h[8:1],
{8}7>2[12:1],{24}5/6,,4,,,,4,,5,{4}6/3b,2/5b,
7/4b,{8}3bV51b[6:1]/6bV48b[6:1],7b/2b,{4}A6f/A3f,{8}2-4[12:1],7-5[12:1],
2V48b[12:1],7V51b[12:1],4bx,5bx,3,{24}6,,2,{8}3/5<8[12:1],{24}4-8[12:1],,3,
{8}5-1[12:1],4>1[12:1],5,4<7[8:1],5,1/4>1[8:1],3,{24}4/8,7,6,
{8}5h[8:1],1h[8:1],7h[8:1],3h[8:1],{12}5,{24}4,7,,5,{12}6,{24}3,5,,1,
{12}4,{24}8,5,,2,{12}5-1b[12:1]*w1[12:1],3,{24}4h,6h,{4}5bh,{8}6-8[12:1],3-1[12:1],
6V84b[12:1],3V15b[12:1],8bx,1bx,7,{24}2,,6,{8}7/1V35[8:1],5v2[8:1],
1bxv6b[8:1],6xV82b[8:1],1bx,5x,{24}5,4,3,2,1,8,5/7,4,3,2,1,8,
{8}6h[8:1],7h[8:1],4h[8:1],1h[8:7],{4}8,8,
{8}8<2b[24:5],8,{4}8b,{8}8b,{24}6x,,6,{12}8>3[8:1],{24}4,5x,,7,
{8}8b,{24}5x,,5,{12}3<6[8:1],{24}8,4x,,1,{12}3b,{24}2,2x,,4b,{12}1,{24}5,8bx-4[8:1],,6,
{12}8,{24}4,8x,,3,2,1,8,7,6,5,{12}4/8b,{24}7,5<8[8:1],,6,{12}4,{24}2,5b,,4,
{12}4,{24}8h,3bh,1h,4h,{8}2h[8:1],{24}3x,4,5,2x,3,4,5,6,7,8>8>1>2>3<4<5<6<7>8b[2:1],1,2,3,4,5,
{32}8bx/6h[4:1],1,2,3,4,5,,7,8,A1,A2,A3,A4,A5,A6,A7,{2}D1/A1/B1/B8/A8/E1f,
{8}E1,,,B7,{24}B2,,,,,C,,,,{8}E5,
,E7/E3,,5,{24}4,,,,,6,,,,{8}5,
,7,8pp7[1:1],5,{2}4h[4:3],
E
