&title=I'm Alright!
&artist=東方LostWord feat. KIHOW from MYTH & ROID × A-One
&first=2.4
&des=Kattobi !
&lv_5=13+
&inote_5=(158)
{16}
5,6,4,5,3-7<4-1-6[4:3],4,2hb[16:26],3,,,,,,,,,,,,,,,,,7,,,8,,,1,,3,2,4,3,5,4,6-8-4[4:3],5,7hb[16:22],6,,,,,,,,,,,,,,,5,,,4,,,3,,1,2,8-6-8v1-3[1:1],1,7hb[16:26],8,,,
,,,,,,,,,,,,,,,,3,,,2,,,1,,8-5[1:1]*z4[1:1],7,1,8,2,1,,,,,,,,,,,,,,,,,,,6/3,,,7/2,,,1-5[250#10:1]*pp8>8[2:5]/8-4[250#10:1]*qq1[1:1],,1/8/Cf,,,,,,,,,,,,,,,,,,,,,,,,1x,,,2x,,,3x,,4x,3x,4x,3x,4x,3xv8>3v6[250#2:3],4x,3x,,,,,,,,,,,,,,,,,8,,,7,,B2,6x<6[4:5]/B3,B4,Cf,,,,,,,,,,,,,,,,,,,,,,,,
1,,,2,,,3,,3,4,3,6,5,6,4z8s4b[1:1],5,4hb[2:1],,,,,,,,2<3[6:4],,,,,,,,,,,,,,,,
2,1,2,7,8,7,2,1,2,7,8-3[45#35:1],7hx[3:2]/8hx[3:2],,,,,,,,,,,,,7-4[200#10:1]/8,,,7/8-3[200#10:1],,,7/8,,6,5,6,3,4,3,6,5,6,3,4<7[45#35:1],3hx[3:2]/4hx[3:2],,,,,,,,,,,,,4/3>8[200#10:1],,,4<7[200#10:1]/3,,,4/3,,1,8,1,8,2,7,2,7,1x/8x,1x-5[42#40:1]/8x-4[42#40:1],1hx[4:3]/8hx[4:3],,,,,,,,,,,,,,1v6[200#10:1]/8v3[200#10:1],,,1>4[200#10:1]/8<5[200#10:1],,,8/1,,3x,6x,3x,6x,4,5,4,5,3,6,3,2,7,2,1,8,1b>1q4b[80#4:1],,,,,,,,,,,,,,,,
{8}
6/5,1,3/4,8,6/5,4/5,3/4,3/6,,
{16}
3,4,3,6,5,6,1/2,1/2,,,8/7,8-3[200#10:1]/7-4[200#10:1],8/7,,8b/7b,,5,6,7,3,2,1,
8/7,,,1/2,,,1-6[300#6:1]/2-5[300#6:1],,1b/2b,,4,3,2,6,7,8,1/2,,,8/7,,,8-3[300#6:1]/7-4[300#6:1],,8b/7b,,,,2h[4:1],,4h[4:1],,6h[4:1],,8h[4:1],,,,1,,,,
2,1,2,7,8,7,6/5,6/5,,,3/4,3-8[200#10:1]/4-7[200#10:1],3/4,,3b/4b,,1,2,3,7,6,5,4/3,,,6/5,,,6-1[300#6:1]/5-2[300#6:1],,6b/5b,,8,7,6,2,3,4,5/6,,,4-7[200#10:1]/3-8[200#10:1],,,3b/4b,,
{8}
1xq8<1[60#11:5],2,3,2,3,4,,,,,,,,,,,8-3-7-4[60#11:3],7,6,7,6,5,,,,,,,
{16}
5/C,,,3/C,,,B6/B7/B2/B3,,
{8}
2-5[15:1]/6-1[15:1],1/5,2/6,1<6[10:1]/5>2[10:1],1/5,1/5,,7-4[10:1],4-7[10:1],7>7[16:14],3h[2:1],,,,1x,1,1-5[10:1],,1b/Cf,,,8qq5[80#12:4]/1pp4[80#12:4],7/2,6/3,,8/1,,,,,,,6/5,1b,4/5,1b,3/4,8b,4/5,8b,6/5,1/2,5b,1/8,5b,8/7,4b,1/8,4b,1/2,4/5,8/7,4/5,6/3,7/2,,8-6[10:1]/1-3[10:1],,8-4[10:1]/1-5[10:1],,8/1,,,,
8-3[10:1],2,8-5[10:1],6,8-4[10:1]*-3[10:1],2,8-5[10:1]*-6[10:1],,8,,
1h[8:3],,2h[4:1],3h[8:3],4-8b[10:1]*>5[1:1],,4h[1:1],,,,,,,,
{16}
E3f,,,Cf,,,E7f,,1h[3:1],,,,,,,,
{8}
1-3[10:1]*-4[10:1],,1-5[10:1],,1-6[10:1]*-7[10:1],,1w5[10:1],,1,,
8,8,8z4[4:1],,8<8[1:1],,8,,
{16}
B7,,E7,,B6,,E6,B5,C,,,,
{8}
7-2[10:1],3-6[10:1],7bV13b[8:1],3b,7b,,,,
7-5[10:1]/8-5[10:1],,8-2[10:1]/7-2[10:1],,8-3[10:1]/7-4[10:1],,8-5[10:1]/7,,
8-2[4:1],,2-7[4:1],,7-3[8:1],,3,,1b/2b,8b/7b,6b/5b,4b-7[10:1]/3b-8[10:1],,4/3,,
{16}
1/6,2/5,4qq2>3-8[350#5:3]/3pp5>4-7[350#5:3],,
{8}
4/3,,,,1,1-4[10:1],1,1-6[10:1]/8,7,1>4[10:1]/2,3,1<6[10:1]/8,7,1/2,
{16}
,,3/7,2/8,1w5[310#6:1],,1,,D4,A3,D3,A2,D2,A1,5-7-1-3-5V71[4:3],,,,
5,,A1,,A3,,A5,,A4,D4,A3,D3,A2,,,,
{8}
1-5[10:1],2-6[10:1],1>1[4:1],2,1,,,,
{16}
1-5[10:1]/2-6[10:1],8/3,7/4,,1b/2b,,,,8-4[10:1]/7-3[10:1],6/1,5/2,,8b/7b,,,,
5,6,7,,8h[2:1],,4,,3-6[10:1],,,,7-4[10:1],,,,5-1[320#5:1],,2-6[320#5:1],,,,,,,
8<2[4:1],7p6[16:3],6,,,,,,,,,8v5[10:1]/2v5[10:1],,,,8/2,,6-1[10:1]/4-1[10:1],,7-3b[1:1],,6/4,,7x,,,,,,,,,,,,,,,,,,2,4,2,5,2,6,2/7,2/7,,,8-5[10:1]/1-4[10:1],8/1,8/1,,8b/1b,,3,2,1-4[10:1],5,6,7,1-5b[200#10:1],,,1-6[200#10:1],,,1,,5,4,3,6,7,8,
4,3,2-5[200#10:1]/1,,,1-6[200#10:1]/2,,,1,,5,4,3,,3h[10:1],,4h[10:1],,5h[10:1],,6h[2:1],,5,,4h[4:1],,,,3,5,3,5,2,6,2,6,1h[20:1],7h[20:1],1h[20:1],7h[20:1],8w4[300#6:1],,8,,D3,A2,D2,D6,A6,D7,
{32}
B7/B1,B6/B2,B5/B3,,,,B8/B1,B7/B2,B6/B3,,,B8/B2,B7/B3,B6/B4,,,
{16}
E6,E4,B6,B3,B7,B2,E8,E2,
{32}
7b,B7,C,B3,,,,2b,B2,C,B6,,,8b,B8,C,B4f,,,,
{16}
4h[8:6],,5,,6,,7,,8-5[10:1],,8,,8,,,,
5,6,4,7,3,8,2,7,1,6,2,5,3,4,4/3,,
3,2,1,4,5,6,
{32}
7/8,E7/E1,B6/B1,B5/B2,,,7/8,D7/D1,A6/A1,D6/D2,,7/8,E7/E1,B6/B1,B5/B2,,
{16}
1,2,3,4,1-7[15:1],2,3,4,1-3[200#15:1],,,1w5[200#15:1],,,1,,
3>1[8:1],4,3,,1-5[300#4:1],,5<7[300#4:1],,7-3[300#4:1],,3v8[300#3:1],,6,,,,
,,8,7,1,6,2,5,3,4,4,3,3,3,4,3,4,3,5,2,6,1,7,,8/1,,,8/1,,,8/1,,
2,8,3,7,4,6,5,,6-1[100#20:1]/5-2[100#20:1],,,4/3,,,6b/5b,,
{4}
B1/B2/B8/B3/Cf/B7/B4/B6/B5,,,,,,
{16}
A5,,,A6,,,A7,,8p3[1:1],,,,,,,,,,,,,,,,,,,,,,,,A2,,,A1,,,A8,,7-5v4-2[1:1],,,,,,,,,,,,,,,,,,,,,,,,A8,,,A7,,,A6,,5s1z5b[1:1],,,,,,,,,,,,,,,,,,,,,,,,
A4,,,A3,,,A2,,1<1-5[1:1],,,,,,,,,,,,,,,,,,,,,,,,6-4-7b[52#10:1]/4,,,7-3-8[45#12:1]/3,,,8-2-5b[40#10:1]/2,,1hb[4:5],,,,,,,,,,,,,,,,,,,,,,,,
2-4b[200#10:1],,,1-5[200#10:1],,,8-3-7-4b[7:8],,,,,,,,,,,,,,,,,,,,,,,,,,
8<1b[53#12:7]*<2[53#6:3]*<3b[53#12:5]*<4[53#9:3]*<5b[53#8:2]*<6[53#6:1],,,1,,,8,,,,,,,,,,,,,,,,,,,,,,,,,,A5,,,A6,,,A7,,B7/E7/B6/Chf[20:1]/B2/B3/E3,
