&title=Lemegeton -little key of solomon-
&artist=Team Grimoire vs MASAKI「グルーヴコースター」
&first=0.03
&des=Ars Goetia
&lv_5=16
&inote_5=(185)
{1},,,
{4}1h[4:2],,
{32}8>8[4:12],7,6,5,4,,,,
{1},,,
{4},
{4}8h[4:2],,
{32}1<1[4:12],2,3,4,5,,,,
{1},,,
{4},
{8}2,3,5/4h[8:1],6,2,3,5/4h[8:1],6,3,4,6/5h[8:1],7,3,4,6/5h[8:1],7,
{8}35,3h[8:1],6,4,46,6h[8:1],3,5,
{16}4,5,4,5,3,6,3,6,2,7,2,7,
{32}1,2,3,4,5,6,7,8,
{16}1-6[16:1],,,5-1[16:1],,,2-5[16:1],,,8-4[16:1],,,1,,2,,3-8[16:1],,,1-6[16:1],,,7-4[16:1],,,5-2[16:1],,,3,,4,,
{16}5/7h[8:1],,,7,3h[8:1],,5,3,1h[8:1],,3,1,5h[8:1],,7,5,
{8}8bw4[92.5#12:1]/4h[8:3],,
{4},,,
{16}2b,1,3h[8:1],,8,2h[8:1],,7,1h[8:1],,6,8,5,1,4,,
{16}3b,2,4h[8:1],,3,5h[8:1],,4,6h[8:1],,5,7,4,6,3,,
{16}2h[8:3],,1,8,7,6,5h[8:2],,2V41[8:1],,,,6h[8:1],,,,
{12}7,18,2,3h[8:2]/5-1[8:1],,,,,,37,,,
{16}17,,3,3,4,,4,5,,5,6,,56,,57,,
{16}28,,6,6,5,,5,4,,4,3,,43,,42,,
{16}8,,17,,3,4,2,,56,,45,,3,,3h[8:1]/1,,7h[8:1],,,,2h[8:1]/5h[8:1],,,,4h[8:1]/6h[8:1],,,2h[8:1]/4h[8:1],,,8b/2b,,
{16}3,1,3,8,3,7,3,6,4,6,5,6,7,6,5,6,7,6,8,6,1,6,2,5,3,4,3,2,3,4,3,,
{16}2v5[8:1],1h[8:1],,,12,,8,,7v4[8:1],8h[8:1],,,78,,1,,
{16}25,,,74,,,83,,,16,,,
{32}7,6,5,4,3,2,1,8,
{16}3,3,7,4,4,8,5,5,1,1,5,8,8,4,7,7,3h[8:1],,4,3,5,3,6<1[8:1],,2h[8:1],,,2,,,2<7[8:1],,5h[8:1],,,5,,,6>3[8:1],,1h[8:1],,,1,,,2,,
{32}3h[8:1]/8b,7,6,5,,,,,6h[8:1]/1b,2,3,4,,,,,28,37,46,5,,,,,1-6[8:1]/7,26,35,4,,,,,1b<7[4:13]*<7[4:13]/2,3,4,5,,,,,
{8}4,3,2v4[8:1],,2,,5,6,5,4,6>3[8:1],,6,,2h[8:1],,
{32}2,3,4,5,6,,,,1h[8:1],,,,,,,,1,2,3,4,5,,,,
{16}5h[16:1],,5h[16:1],,4h[16:1],,5h[16:1],,4,5,3,6,
{24}2,7,2,7,2,7,
{32}1b/8b,27,36,4h[64:1]/5h[64:1],,,,,
{8}2<7[8:1],5,2>5[8:1],,
{32}21,8,7,6,,,,,
{8}3,25,6,47,8w4[8:1],,8,,2-5[8:2],,5-1[8:2],,1-6[8:2],,6V84[8:3],,4,4>5[8:3]*<3[8:3],,,,,,,
{32}4b,35,26,17,8h[64:1],,,,
{8}1-6[8:1],2,1/3-8[8:1],,
{32}34,5,6,7,,,,,
{16}7,6,5,4,1,2,3,4,56,,47,,38,,12,,
{8}8-3[8:1],4,8,7,1-6[8:1],5,1>4[8:2],,4<7[8:2],,7>2[8:2],,
{16}2,3,4,5,6,7,8,1,
{8}4b<7[8:1],3,2,1,8-3[8:1],7,6,5,4-1[8:1],5,6,7,8-5[8:1],1,2,3,
{16}4,5,4,5,3,6,3,6,2,7,2,7,1,8,1,8,
{16}2,,
{32}78,6,5,4,,,,,2,,,,81,2,3,4,,,,,2b/1b,8,7,6,,,,,
{16}35,,8,7,1,8,2,1,
{24}3-8[8:1],4,5,6-1[8:1],,,
{8}3,6,3b,
{16}1,2,8,1,7,8,
{24}6-1[8:1],5,4,3-8[8:1],,,
{8}6,3,
{16}7b,,3,5,4,,46,,
{24}7,8,7,1,,,
{16}24,,68,,
{24}1b,2,3,7,8,1,
{32}5,4,3,2,1,8,7,6,5w1[8:1],,,,,,,,5b,,,,,,,,
{16}3,4,2,5,
{24}4b,6,3,7,3,8,
{16}3,1,2,8,
{24}1b,7,1,6,2,5,
{16}3,5,4,6,
{24}5b,7,5,8,4,1,
{16}3,1,2,8,
{24}1b,7,1,6,2,5,
{16}3,4,3,4,5,4,5,4,5,6,5,6,
{32}7,8,1,2,3,4,5,6,
{8}7b-3[8:1],,,
{16}1b-4[16:1]*-6[16:1],,,1b,,,3b/7b,,,,
{16}2-5[8:1],,4,6,2,,
{24}1,8,7,
{16}6>3[8:1],,8,2,6,,
{24}2,1,8,7b<4[8:1],,,
{16}5,1,7,,
{24}8-5[8:1],1,2,3-6[8:1],,,
{16}8,,3,,1,,
{24}5,7,4,7,3,6,3,,,18,,,
{16}3,5,1,,1>4[8:1],,37,,
{32}15,6,7,8,,,8,,
{16}5,7,4,6,1w5[8:1],,,,1b,,,,
{16}5,7,4,6,3,5,2,4,2,4,3,5,4,6,5,7,
{24}5,7,5,7,5,7,4,6,4,6,4,6,3,5,3,5,3,5,2,4,2,4,2,4,
{16}1,5,1,6,1,7,1,8,
{24}2,1,2,8,2,7,2,6,2,5,2,4,
{16}2b-6[16:1],,,3b/2b,,,8b-4[16:1],,,7b/8b,,,6b/5b,,1b/2b,,
{16}7b-3[16:1],,,6b/7b,,,1b-5[16:1],,,2b/1b,,,4b,,1b/7b,,
{32}7b,,,,3,4,5,6,8b,,,,3,4,5,6,8b,,,,
{32}2,1,8,7,2,1,8,7,2,1,8,7,
{48}6,5,4,3,4,5,6,5,4,3,4,5,6,5,4,3,4,5,6,5,4,3,4,5,6bw2[8:1]*-2[8:1],,,,,,,,,,,,,,,,,,,,,,,,
{16}78,,
{24}5,6,4,3,,,
{16}12,,7,8,,6,5<8[8:1],,34,,
{24}1,2,3,4,5,6,
{32}1,2,3,4,5,6,7,8,
{24}1-5[8:1],,,8,7,7,1b,,,,,,
{16}6,4,5,3,4,2,5,2,
{24}6,2,7,3,8,4,1-5[8:1],5,,
{16}3,7,1-3[8:1],6,7,8,1-7[8:1],7,6,5,1-5[8:1],4,5,6,1b,,,,
{16}7-4[8:1],,4V61[8:2],4,7,,2-6[8:1],,3,,2,,
{16}1-5[8:1],8,7-4[8:1],,1,,7,,
{24}3,2,1,85,6,7,
{16}2-6[8:1]/8,2,,4,2b/4b,,,,
{16}8,5,1,6,2,7,3,8,3,4,2,5,1,6,8,7,
{24}4,5,2,7,4,5,3,6,3,6,3,6,2,7,1,8,3,6,1b/8b,,,,,,
{16}5,6,2,1,7,6,2,3,1,4,8,5,
{24}7,6,7,6,7,6,
{16}8-4[8:1],8,6,2,8,1,1-6[8:1],2,3-8[8:1],,1,,3,,7,6,5-1[8:1],,,4,35,,2,,
{24}8,7,6,1,2,3,7,6,5,8,7,6,
{12}15,15,37,26,26,48,
{24}3,2,1,5,6,7,
{48}1,2,3,4,5,6,7,8,1,2,3,4,
{16}5-1[8:1]/6,56,,35,35,,
{48}2,3,4,5,6,7,
{16}8,8,,28,28,,
{48}2,1,8,7,6,5,
{16}48,48,,26,26,,
{16}8,7,5,6,1,8,3,2,6,7,
{24}4,5,3,
{16}2,1,2,8,1,7,
{24}5,6,5,
{16}7,8,7,1,
{24}6,2,6,
{24}3,3,3,5,5,5,3,3,3,4,4,4,
{32}3-7[8:1],3,3,3,3,3,3,3,3b,,,,,,,,
{32}1bw5[30.9#40:1]/8bw4[30.9#40:1],27,36,
{4}4h[32:37]/5h[32:37],,,,,,
{32},,,,,
{4}2b/7b,
{16}34,34,,78,78,,46,46,,23,23,,67,34,,18,45,,57,35,,28,68,,
{16}4,,17,,35,,
{24}7,8,7,
{16}1,8,2,,
{16}6,8,
{24}7,8,7,
{32}1,2,13,24,35,,,,
{24}7,8,7,
{32}1,2,13,24,35,,,,
{24}7,8,7,
{32}1,2,13,24,35,,,,
{24}7,8,7,
{32}1,2,13,24,35,,,,
{16}7,8,
{16}6-1[16:1],6,,6/2-6[16:1],2,,2,2/8-4[16:1],8,,3b/8,3b,,,5b/6b,5b/6b,
{16}7,,
{24}2,1,3,
{16}87,,
{24}3,4,2,
{16}56,,18,,
{32}2b,3,4,5,7b,6,5,4,
{32}1b,2,3,4,1b,,,,3b,2,1,8,3b,,,,8b>3[8:1],7,6,5,8b,,,,4b,5,6,7,8b,,,,
{16}7v4[8:1]/4,74,,25,2,,1-5[8:1],,37,,1,,8b,8b,8b,,
{16}2>5[8:1],,4,6,2,,
{32}8>3[8:1],7,6,,
{16}2,5,8,,
{32}5-2[8:1],6,7,,
{16}2,8,5,,
{32}1,8,7,6,2,1,8,7,6,5,4,3,
{16}2/8w4[8:1],1,5,3,8b,,,,
{16}2,1,3,8,
{24}4b,6,3,5,2,4,
{16}8,7,1,6,
{24}3b,5,4,6,5,7,
{16}3b,4,3,2,4,1,5,8,6,7,6,5,8,7,1,6,
{24}3b,5,2,6,1,7,2,8,3,7,4,6,3,4,2,5,3,4,1,6,3,4,2,5,
{32}3b,4,5,6,1,8,7,6,3b,4,5,6,1,8,7,6,3b,4,1,8,3,4,1,8,4,5,8,7,4,5,8,7,
{32}4b,3,2,1,,,7b,6,5,4,,,8b,1,2,3,,,5b,6,7,8,,,4b,3,2,1,8,7,6,5,
{16}4b/8b,,
{24}4,5,3,
{16}26,,8,,
{32}1b,8,7,6,51,48,37,26,1-5[8:1]/5-1[8:1],4,3,2,15,6,7,8,1bpp4[4:15]*pp4[4:15]/5bpp8[4:15]*pp8[4:15],
&inote_6=(185)
{1},,,
{4}1h[4:2],,
{32}8>8[4:12],7,6,5,4,,,,
{1},,,
{4},
{4}8h[4:2],,
{32}1<1[4:12],2,3,4,5,,,,
{1},,,
{4},
{8}2,3,5/4h[8:1],6,2,3,5/4h[8:1],6,3,4,6/5h[8:1],7,3,4,6/5h[8:1],7,
{8}35,3h[8:1],6,4,46,6h[8:1],3,5,
{16}4,5,4,5,3,6,3,6,2,7,2,7,
{32}1,2,3,4,5,6,7,8,
{16}1-6[16:1],,,5-1[16:1],,,2-5[16:1],,,8-4[16:1],,,1,,2,,3-8[16:1],,,1-6[16:1],,,7-4[16:1],,,5-2[16:1],,,3,,4,,
{16}5/7h[8:1],,,7,3h[8:1],,5,3,1h[8:1],,3,1,5h[8:1],,7,5,
{8}8bw4[92.5#12:1]/4h[8:3],,
{4},,,
{16}2b,1,3h[8:1],,8,2h[8:1],,7,1h[8:1],,6,8,5,1,4,,
{16}3b,2,4h[8:1],,3,5h[8:1],,4,6h[8:1],,5,7,4,6,3,,
{16}2h[8:3],,1,8,7,6,5h[8:2],,2V41[8:1],,,,6h[8:1],,,,
{12}7,18,2,3h[8:2]/5-1[8:1],,,,,,37,,,
{16}17,,3,3,4,,4,5,,5,6,,56,,57,,
{16}28,,6,6,5,,5,4,,4,3,,43,,42,,
{16}8,,17,,3,4,2,,56,,45,,3,,3h[8:1]/1,,7h[8:1],,,,2h[8:1]/5h[8:1],,,,4h[8:1]/6h[8:1],,,2h[8:1]/4h[8:1],,,8b/2b,,
{16}3,1,3,8,3,7,3,6,4,6,5,6,7,6,5,6,7,6,8,6,1,6,2,5,3,4,3,2,3,4,3,,
{16}2v5[8:1],1h[8:1],,,12,,8,,7v4[8:1],8h[8:1],,,78,,1,,
{16}25,,,74,,,83,,,16,,,
{32}7,6,5,4,3,2,1,8,
{16}3,3,7,4,4,8,5,5,1,1,5,8,8,4,7,7,3h[8:1],,4,3,5,3,6<1[8:1],,2h[8:1],,,2,,,2<7[8:1],,5h[8:1],,,5,,,6>3[8:1],,1h[8:1],,,1,,,2,,
{32}3h[8:1]/8b,7,6,5,,,,,6h[8:1]/1b,2,3,4,,,,,28,37,46,5,,,,,1-6[8:1]/7,26,35,4,,,,,1b<7[4:13]*<7[4:13]/2,3,4,5,,,,,
{8}4,3,2v4[8:1],,2,,5,6,5,4,6>3[8:1],,6,,2h[8:1],,
{32}2,3,4,5,6,,,,1h[8:1],,,,,,,,1,2,3,4,5,,,,
{16}5h[16:1],,5h[16:1],,4h[16:1],,5h[16:1],,4,5,3,6,
{24}2,7,2,7,2,7,
{32}1b/8b,27,36,45,,,,,
{8}2<7[8:1],5,2>5[8:1],,
{32}28,7,6,5,,,,,
{8}3,25,6,47,8w4[8:1],,8,,2-5[8:2],,5-1[8:2],,1-6[8:2],,6V84[8:3],,4,4>5[8:3]*<3[8:3],,,,,,,
{32}4b,35,26,17,8,,,,
{8}1-6[8:1],2,1/3-8[8:1],,
{32}34,5,6,7,,,,,
{16}7,6,5,4,1,2,3,4,56,,47,,38,,12,,
{8}8-3[8:1],4,8,7,1-6[8:1],5,1>4[8:2],,4<7[8:2],,7>2[8:2],,
{16}2,3,4,5,6,7,8,1,
{8}4b<7[8:1],3,2,1,8-3[8:1],7,6,5,4-1[8:1],5,6,7,8-5[8:1],1,2,3,
{16}4,5,4,5,3,6,3,6,2,7,2,7,1,8,1,8,
{16}2,,
{32}78,6,5,4,,,,,2,,,,81,2,3,4,,,,,2b/1b,8,7,6,,,,,
{16}35,,8,7,1,8,2,1,
{24}3-8[8:1],4,5,6-1[8:1],,,
{8}3,6,3b,
{16}1,2,8,1,7,8,
{24}6-1[8:1],5,4,3-8[8:1],,,
{8}6,3,
{16}7b,,3,5,4,,46,,
{24}7,8,7,1,,,
{16}24,,68,,
{24}1b,2,3,7,8,1,
{32}5,4,3,2,1,8,7,6,5w1[8:1],,,,,,,,5b,,,,,,,,
{16}3,4,2,5,
{24}4b,6,3,7,3,8,
{16}3,1,2,8,
{24}1b,7,1,6,2,5,
{16}3,5,4,6,
{24}5b,7,5,8,4,1,
{16}3,1,2,8,
{24}1b,7,1,6,2,5,
{16}3,4,3,4,5,4,5,4,5,6,5,6,
{32}7,8,1,2,3,4,5,6,
{8}7b-3[8:1],,,
{16}1b-4[16:1]*-6[16:1],,,1b,,,3b/7b,,,,
{16}2-5[8:1],,4,6,2,,
{24}1,8,7,
{16}6>3[8:1],,8,2,6,,
{24}2,1,8,7b<4[8:1],,,
{16}5,1,7,,
{24}8-5[8:1],1,2,3-6[8:1],,,
{16}8,,3,,1,,
{24}5,7,4,7,3,6,3,,,18,,,
{16}3,5,1,,1>4[8:1],,37,,
{32}15,6,7,8,,,8,,
{16}5,7,4,6,1w5[8:1],,,,1b,,,,
{16}5,7,4,6,3,5,2,4,2,4,3,5,4,6,5,7,
{24}5,7,5,7,5,7,4,6,4,6,4,6,3,5,3,5,3,5,2,4,2,4,2,4,
{16}1,5,1,6,1,7,1,8,
{24}2,1,2,8,2,7,2,6,2,5,2,4,
{16}2b-6[16:1],,,3b/2b,,,8b-4[16:1],,,7b/8b,,,6b/5b,,1b/2b,,
{16}7b-3[16:1],,,6b/7b,,,1b-5[16:1],,,2b/1b,,,4b,,1b/7b,,
{32}7b,,,,3,4,5,6,8b,,,,3,4,5,6,8b,,,,
{32}2,1,8,7,2,1,8,7,2,1,8,7,
{48}6,5,4,3,4,5,6,5,4,3,4,5,6,5,4,3,4,5,6,5,4,3,4,5,6bw2[8:1]*-2[8:1],,,,,,,,,,,,,,,,,,,,,,,,
{16}78,,
{24}5,6,4,3,,,
{16}12,,7,8,,6,5<8[8:1],,34,,
{24}1,2,3,4,5,6,
{32}1,2,3,4,5,6,7,8,
{24}1-5[8:1],,,8,7,7,1b,,,,,,
{16}6,4,5,3,4,2,5,2,
{24}6,2,7,3,8,4,1-5[8:1],5,,
{16}3,7,1-3[8:1],6,7,8,1-7[8:1],7,6,5,1-5[8:1],4,5,6,1b,,,,
{16}7-4[8:1],,4V61[8:2],4,7,,2-6[8:1],,3,,2,,
{16}1-5[8:1],8,7-4[8:1],,1,,7,,
{24}3,2,1,85,6,7,
{16}2-6[8:1]/8,2,,4,2b/4b,,,,
{16}8,5,1,6,2,7,3,8,3,4,2,5,1,6,8,7,
{24}4,5,2,7,4,5,3,6,3,6,3,6,2,7,1,8,3,6,1b/8b,,,,,,
{16}5,6,2,1,7,6,2,3,1,4,8,5,
{24}7,6,7,6,7,6,
{16}8-4[8:1],8,6,2,8,1,1-6[8:1],2,3-8[8:1],,1,,3,,7,6,5-1[8:1],,,4,35,,2,,
{24}8,7,6,1,2,3,7,6,5,8,7,6,
{12}15,15,37,26,26,48,
{24}3,2,1,5,6,7,
{48}1,2,3,4,5,6,7,8,1,2,3,4,
{16}5-1[8:1]/6,56,,35,35,,
{48}2,3,4,5,6,7,
{16}8,8,,28,28,,
{48}2,1,8,7,6,5,
{16}48,48,,26,26,,
{16}8,7,5,6,1,8,3,2,6,7,
{24}4,5,3,
{16}2,1,2,8,1,7,
{24}5,6,5,
{16}7,8,7,1,
{24}6,2,6,
{24}3,3,3,5,5,5,3,3,3,4,4,4,
{32}3-7[8:1],3,3,3,3,3,3,3,3b,,,,,,,,
{32}1bw5[30.9#40:1]/8bw4[30.9#40:1],27,36,
{4}4h[32:37]/5h[32:37],,,,,,
{32},,,,,
{4}2b/7b,
{16}34,34,,78,78,,46,46,,23,23,,67,34,,18,45,,57,35,,28,68,,
{16}4,,17,,35,,
{24}7,8,7,
{16}1,8,2,,
{16}6,8,
{24}7,8,7,
{32}1,2,13,24,35,,,,
{24}7,8,7,
{32}1,2,13,24,35,,,,
{24}7,8,7,
{32}1,2,13,24,35,,,,
{24}7,8,7,
{32}1,2,13,24,35,,,,
{16}7,8,
{16}6-1[16:1],6,,6/2-6[16:1],2,,2,2/8-4[16:1],8,,3b/8,3b,,,5b/6b,5b/6b,
{16}7,,
{24}2,1,3,
{16}87,,
{24}3,4,2,
{16}56,,18,,
{32}2b,3,4,5,7b,6,5,4,
{32}1b,2,3,4,1b,,,,3b,2,1,8,3b,,,,8b>3[8:1],7,6,5,8b,,,,4b,5,6,7,8b,,,,
{16}7v4[8:1]/4,74,,25,2,,1-5[8:1],,37,,1,,8b,8b,8b,,
{16}2>5[8:1],,4,6,2,,
{32}8>3[8:1],7,6,,
{16}2,5,8,,
{32}5-2[8:1],6,7,,
{16}2,8,5,,
{32}1,8,7,6,2,1,8,7,6,5,4,3,
{16}2/8w4[8:1],1,5,3,8b,,,,
{16}2,1,3,8,
{24}4b,6,3,5,2,4,
{16}8,7,1,6,
{24}3b,5,4,6,5,7,
{16}3b,4,3,2,4,1,5,8,6,7,6,5,8,7,1,6,
{24}3b,5,2,6,1,7,2,8,3,7,4,6,3,4,2,5,3,4,1,6,3,4,2,5,
{32}3b,4,5,6,1,8,7,6,3b,4,5,6,1,8,7,6,3b,4,1,8,3,4,1,8,4,5,8,7,4,5,8,7,
{32}4b,3,2,1,,,7b,6,5,4,,,8b,1,2,3,,,5b,6,7,8,,,4b,3,2,1,8,7,6,5,
{16}4b/8b,,
{24}4,5,3,
{16}26,,8,,
{32}1b,8,7,6,51,48,37,26,1-5[8:1]/5-1[8:1],4,3,2,15,6,7,8,1bpp4[4:15]*pp4[4:15]/5bpp8[4:15]*pp8[4:15],
