&title=ニュームーンに恋して
&artist=堀江美都子
&first=0
&des=月色
&lv_5=14
&inote_5=(147)
{1},
{12},,,,,,3xb,4x,2x,6xb,5x,7x,
{16}1h[16:3],,,7h[16:3],,,5^8[8:1]*^2[8:1],,,,,,,,37,,
{16}6qq7[4:1],,4,,3,,2h[8:3],,,,,,7,3,8,2,
{16}1h[16:3],,,7h[16:3],,,5-8[8:1]*-2[8:1],,,,,,,,37,,
{16}1-5[8:1],,6<4[4:1],,1x,,6x,,,,,,6,2,7,1,
{16}8h[16:3],,,2h[16:3],,,4^1[8:1]*^7[8:1],,,,,,,,62,,
{16}3pp2[4:1],,5,,6,,7h[8:3],,,,,,1,7,2,6,
{16}3^6[8:1],,,,6,,8-4[8:1],,,,4pp1[8:3]*qq7[8:3],,,,,,
{16},,,,,,2,4,3,5,4,6,5,7,1,,
{16}2x^5[8:1]/8xh[4:1],,,,,,,,,,6,,47,,5h[4:1],,
{16},,4qq3[4:1],,4pp5[4:1],,,,,,,,1,,,,
{16}2^5b[8:1]/8h[4:1],,,,,,,,,,6,,47,,5-7-4-8[8:3],,
{16},,3,,3h[4:1],,,,,,7,5,6,3,4,2,
{16}7x^4[8:1]/1xh[4:1],,,,,,,,,,3,,52,,4h[4:1],,
{16},,5v6[8:1],,5s1[4:1],,,,,,,,8,,,,
{16}7^4b[8:1]/1h[4:1],,,,,,,,,,3,,52,,4-8^1-5[8:3],,
{16},,6,,6h[4:1],,,,,,{48}A4,D4,A3,{16}D3,,,{48}A6,D7,A7,{16}D8,
{16}5xw1[8:1],,,,5b,,,,,,2,4,3,,7,5,
{16}6,,1,,2q3[8:3]/8,,,,6h[4:1],,,,,,,,
{16}4-8[8:1]/7-4[8:1],,,,47,,,,,,2,1,2,,38,,
{16},,7,8,7,,16,,,,2,4,3,6,5,7,
{16}4xw8[8:1],,,,4qq5[8:3],,,,,,6,,7,,8h[4:1],,
{16},,5,,5pp4[8:3],,,,3h[4:1],,,,,,,,
{16}2-5[8:1]/5-1[8:1],,,,25,,,,34,,5,,24,,6,,
{16}65,,4,,57,,3,,2b,8,2,8,3,7,4,6,
{16}3>6<3[1:1],,,,B6/E6,,,,,,,,B3/E4,,,,
{16},,,,5-8[8:1],,,,5b-2[8:1]/3,,,,5b/7,,,,
{16}3/8x-4[8:1],,,,4,,1x-5[8:1],,,,5,,8x^3[8:1]*^5[8:1],,37,,
{16}8xw4[8:1],,,,8x,,,,26,,7,1,6,2,5,3,
{16}6<3>6[1:1],,,,B3/E4,,,,,,,,B6/E6,,,,
{16},,,,4-1[8:1],,,,4b-7[8:1]/6,,,,4b/2,,,,
{16}1x^4[8:1]/6,,,,4,,8x^5[8:1],,,,5,,1x,,2q6[8:1]/6,,
{16},,5,,7h[4:1],,,,8,,6,5,7,,3,4,
{16}2^5[8:1],,5^8[8:1],,2,,,,1,,2^8[12:1],,3,,2b>8[4:1]*q8[4:1]/8b,,
{16},,,,,,,,{32}D2,D3,D4,D5,D6,D7,D8,D1,{16}Cf,,,,
{16}6x^1[8:1]/2x,,4^1[8:1],,6^4[12:1],,4,,6,,2x,3x,4x,5x,6x,7x,
{16}2^8[12:1]/8x,,5^8[8:1],,2^5[8:1],,5,,2,,7x,6x,5x,4x,3x,2x,
{16}1x/7,,6,5,7,,28,,3,4,2-6[8:1],,17,,2b/6b,,
{16},,7,,28,,3b/7b,,2,1,3,8,4,7,5,6,
{16}3^8[8:1],,5^8[8:1],,3^5[12:1],,5,,3,,7x,6x,5x,4x,3x,2x,
{16}7^1[12:1]/1x,,4^1[8:1],,7^4[8:1],,4,,7,,2x,3x,4x,5x,6x,7x,
{16}8xw4[8:1]/2,,,,8b,,,,1w5b[8:1]/7,,,,1b,,,,
{16}7-3[8:1]/3,,6,,1h[4:1],,,,4,2,5,3,6,4,7,5,
{16}8b,,,6,5,,4^1[8:1]*^7[8:1]/7,,,,,,,,62,,
{16}3qq8[8:3],,5,,6,,7h[8:3],,,,,,2,6,1,7,
{16}8,,,6,5,,4w8[8:1]/7,,,,,,,,62,,
{16}8-4[8:1],,3>5[4:1],,8x,,3x,,,,,,3,7,2,8,
{16}1,,,3,4,,5^8[8:1]*^2[8:1]/2,,,,,,,,37,,
{16}6pp1[8:3],,4,,3,,2h[8:3],,,,,,8,2,7,3,
{16}6^3[8:1],,,,3,,1-5[8:1],,,,5qq1[8:3]*pp1[8:3],,,,,,
{16},,,,,,7,5,6,4,5,3,4,2,8,,
{16}1/7<7[2:1],,,,3>3[2:1]*-8[16:3],,,,,,,,3>4[16:7],,,,
{16},,,,3>3[2:1]*-8[16:3],,,,,,,,3>5[16:6],,,,
{16},,,,3>3[2:1]*-8[16:3],,,,,,,,3>6[16:5],,,,
{16},,,,3,,,,1w5[8:1],,,,1b,,,,
{16}8/2V46-8-2[2:1],,,,6V82-4-6[2:1]*-1[16:3],,,,,,,,6V82-4[8:3],,,,
{16},,,,6V82-4-6[2:1]*-1[16:3],,,,,,,,6V82[4:1],,,,
{16}8h[8:3],,,,,,4xqq4[4:1],,8x^5[8:1],,,,,,,,
{16},,2,7,3,6,4,5,1,8,2,7,3,6,4,5,
{16}3-7[8:1],,,,6,,8h[4:1],,,,6-2[8:1],,3,,1h[4:1],,
{16},,3^6[8:1],,,,6,,8w4[8:1],,,,8,,,,
{16}65,,37,,,,34,,2-7[8:1]/6-3[8:1],,,,2b/6b,,,,
{16}8>6b[4:1]/4,,,,7,,7h[8:3]/A3f/D3/D4,,,,,,8,,,,
{16}5-8[8:1],,,,4-1[8:1]/5,,,,3^6[8:1]/4,,,,3/8h[4:1],,,,
{16}7x-3[8:1],,,,1,,8x-4[8:1],,,,2,,1x-5[8:1],,5,,
{16}1^6[8:1]/7h[8:1],,,,1^4[8:1]/4h[8:1],,,,17,,6,6,5,7,4,8,
{16}3>5[4:1],,,,5,,,,,,1,,28,,,,
{16}4-1[8:1],,,,5-8[8:1]/4,,,,7-3[8:1]/5,,,,7/1h[4:1],,,,
{16}4x^7[8:1],,,,1,,3x^8[8:1],,,,8,,6x-2[8:1],,2-6[8:1],,
{16},,3,,3h[4:1],,,,7,,8,1,7,2,6,3,
{16}7b>4b[4:1],,,,4,,,,,,8,,1/7>4b[4:1],,,,
{16}67,,,,5p1[8:1],,,,5b-8[8:1]/7,,,,5b/2,,,,
{16}6/1x-5[8:1],,,,5,,8x-4[8:1],,,,4,,1x^6[8:1]*^4[8:1],,62,,
{16}1xw5[8:1],,,,1x,,,,73,,2,8,3,7,4,6,
{16}2b<5b[4:1],,,,5,,,,,,1,,8/2<5b[4:1],,,,
{16}32,,,,4q8[8:1],,,,4b-1[8:1]/2,,,,4b/7,,,,
{16}8x^5[8:1]/3,,,,5,,1x^4[8:1],,,,4,,8x,,7p3[8:1]/3,,
{16},,4,,2h[4:1],,,,1,,3,4,2,,6,5,
{16}7^4b[8:1],,4^1b[8:1],,7,,,,8,,7^1[12:1],1,6,2,7b<1[4:1]*p1[4:1],,
{16},,,,,,,,,,,,E1f/B7/B2/B5/B4/C,,,,
{16}3x^8[8:1]/5x^8[8:1],,,,3^5[12:1]/5,,,,8x^5b[8:1]*^3b[8:1]/3,,,,8,,,,
{16}3^8[8:1],,8^5[8:1],,5x^3[12:1]/3x,,,,{48}A2/D2,,A1,D1,A8,D8,A7,D7,,,,,{16}2xb-5[8:1]/6x-1[8:1],,,,
{16}6<4[8:3]/2,,,,4,,4<2[8:3],,,,1,,2>8[8:3],,3,,
{16},,1,,2,,3,,{32}A1,E1,E8,A7,A3,E4,E5,A5,{16}8xb,,,,
{16}6x^1[8:1]/4x^1[8:1],,,,6^4[12:1]/4,,,,1x^4b[8:1]*^6b[8:1]/6,,,,1,,,,
{16}6^1[8:1],,1^4[8:1],,4x^6[12:1]/6x,,,,{48}A7/D8,,A8,D1,A1,D2,A2,D3,,,,,{16}7xb-4[8:1]/3x-8[8:1],,,,
{16}37,,,,2-7[8:1]/6b-3[8:1],,,,26,,,,1-6[8:1]/5b-2[8:1],,,,
{16}1/5<4b[4:1],,,,,,,,6x,5x,7x,4x,8,3,1,2,
{16}7x^4[8:1],,1^4b[8:1],,7^1[12:1],,1,,7,,3x,2x,1x,8x,7x,6x,
{16}3^5[12:1]/5x,,8^5b[8:1],,3^8[8:1],,8,,3,,6x,7x,8x,1x,2x,3x,
{16}4x/6,,7,8,6,,35,,2,1,3-7b[8:1],,46,,3b/7b,,
{16},,6,,35,,2b/6b,,3,4,2,5,1,6,8,7,
{16}2^5[8:1],,8^5b[8:1],,2^8[12:1],,8,,2,,6x,7x,8x,1x,2x,3x,
{16}6^4[12:1]/4x,,1^4b[8:1],,6^1[8:1],,1,,6,,3x,2x,1x,8x,7x,6x,
{16}3p6[8:1]*>7[8:1]/5x,,,,A3f/D3/D4,,,,3xp6b[8:1]*>7b[8:1],,,,A3f/D3/D4,,,,
{16}3x>7[8:1],,,,3xbp6[8:1]/8,,,,3xb/6,,,,{48}1xb/8xb,2x/7x,3x/6x,{16}4x/5x,,,
{16}26,,3,4,2,,6,5,7,,1x^4[8:1]/8x^5[8:1],,,,1b-7-3-5b[8:3]/8b-2-6-4b[8:3],,
{16},,,,,,,,D4/A4/D5f/A5/D6,,,,3,6,2,7,
{16}1x/8x,,2,4,3,,78,,7,5,6,,12,,4x^1[8:1]/8x,,
{16},,{24}8b,7x,6x,{16}5x,,4x^7[8:1]/8x,,,,{24}8b,1x,2x,{16}3x,,A8/B8/Cf/B4/A4,,
{16},,,,,,,,,,,,,,,,
{16},,,,,,,,,,,,,,,,
E
