&title=蛙石
&artist=舞風-Maikaze
&des=Naïvilizer
&lv_5=0
&inote_5=(60){4},,,,
{2}1w5[24:1],8w4[24:1],
{2}2w6[24:1],7w3[24:1],
{4}1-4[24:1]*-5[24:1],1w5[24:1],1V35[24:1],,
{4}8-5[24:1]*-4[24:1],8w4[24:1],8V64[24:1],
{12},,2,
{12}1-4[24:1]*-5[24:1],,8,1w5[24:1],,2,
{12}1-4[24:1]*-5[24:1],7,3,1w5[24:1],,
{24}7,8,
{12}1-4[24:1]*-5[24:1],,2,1w5[24:1],6,
{24}7,8,
{4}1<2[6:1],
{12}6,,7,
{12}8-5[24:1]*-4[24:1],,
{24}2,1,
{12}8w4[24:1],6,7,
{12}8-5[24:1]*-4[24:1],2,6,8w4[24:1],,
{24}2,1,
{12}8-5[24:1]*-4[24:1],6,7,8w4[24:1],3,1,
{4}8>7[6:1],
{12}3,,
{24}2,8,
{12}1-5[24:1]*-6[24:1],,7,1w5[24:1],,3,
{12}1p5[24:1]*p4[210:10],7,2,1/8w4[24:1],,
{24}2,1,
{12}8-5[24:1]*-4[24:1],,7,8w4[24:1],3,
{24}2,1,
{4}8>7[6:1],
{12}3,,2,
{12}8-4[24:1]*-3[24:1],,
{24}2,5,
{12}8w4[24:1],6,7,
{12}8q4[24:1]*q5[210:10],2,7,8/1w5[24:1],,
{24}7,8,
{12}1-4[24:1]*-5[24:1],3,2,1w5[24:1],6,
{24}7,8,
{4}1<2[6:1],6b,
{4}7<8[4:3],7<8[4:3],7<8[4:3],7<8[4:3],
{4}7,7,7,7,
{4}2>1[4:3],2>1[4:3],2>1[4:3],2>1[4:3],
{4}2,2,2,2-7[2642:1000]*p4[1775:1000]*p1[4:3],
{4}6h[4:1],,,
{12}8,3,2,
{12}1V73[12:1]*V74[128:10],,,1/7w3[24:1],,6v3[12:3]*v4[12:3],7-3[24:1],,,7,,,
{12}2V84[12:1]*V86[145:10],,3,2/1w5[24:1],,1-5[12:4]*-5[12:4],1>5[24:1],,,1,6,7,
{12}8V26[12:1]*V25[128:10],,,8/2w6[24:1],,3v6[12:3]*v5[12:3],2-6[24:1],,,2,,,
{12}7V15[12:1]*V13[145:10],,6,7/8w4[24:1],,8-4[12:4]*-4[12:4],8<4[24:1],,,8,3,2,
{12}1V73[12:1]*V74[128:10],,,1w5[24:1]/8w4[24:1],,1v4[12:3]*v6[12:3],1>6[24:1]/8,,,1,,,
{12}8V26[12:1]*V25[128:10],,7,8w4[24:1]/1w5[24:1],,8v5[12:3]*v3[12:3],8<3[24:1]/1,,,8,,,
{12}1-5[24:1]/8-4[24:1],,,1w5[24:1]/8w4[24:1],3/6,2/7,1w5[24:1]/8w4[24:1],,,1w5[24:1]/8w4[24:1],,,
{4}1-5[24:1]/8,1>1[4:1]*<1[4:1],1b,
{12},3,7,
{12}1-5[24:1]*-4[24:1],,,1w5[24:1],,7,1w5[24:1],,,1w5[24:1],7,8,
{12}1w5[24:1],,3,1w5[24:1],7,8,1w5[24:1],,,1,6,2,
{12}8-4[24:1]*-5[24:1],,6,8w4[24:1],,2,8w4[24:1],,,8w4[24:1],2,1,
{12}8w4[24:1],,6,8w4[24:1],2,1,8w4[24:1],,,8,3,7,
{12}1-4[24:1],,,1w5[32:9]*-5[24:1],,7,1w5[32:9]*-6[24:1],,,1w5[32:9]*-4[24:1],3,2,
{12}1w5[32:9]*-5[24:1],,7,1w5[32:9]*-6[24:1],7,8,1w5[32:9]*-4[24:1],3,,1w5[32:9],8,7,
{12}1w5[32:9],,,1w5[32:9],3,2,1w5[32:9],,,1w5[32:9],,8,
{12}1w5[32:9],3,,1w5[32:9],,,1,,,1,,,
{4}7<8[4:3],7<8[4:3],7<8[4:3],7<8[4:3],
{4}7<8[4:3],7<8[4:3],7<8[4:3],7<8[4:3],
{4}7<8[4:3],7<8[4:3],7<8[4:3],7<8[4:3],
{4}7,7,7,
E
&inote_6=(60){1},
{4}1-5[4:1]*w5[24:1]b,1,8-4[4:1]*w4[24:1]b,8,
{4}2-6[4:1]*w6[24:1]b,2,7-3[4:1]*w3[24:1]b,7,
{4}1-4[12:2]*-6[12:2]*w5[24:1]b,1,8-3[12:2]*-5[12:2]*w4[24:1]b,8,
{4}2-5[12:2]*-7[12:2]*w6[24:1]b,2,7-2[12:2]*-4[12:2]*w3[24:1]b,7,
{12}1-4[24:1]*-5[24:1],,8,1w5[24:1],,2,
{12}1-4[24:1]*-5[24:1],7,3,1w5[24:1],,
{24}7,8,
{12}1-4[24:1]*-5[24:1],,2,1w5[24:1],6,
{24}7,8,
{4}1<2[6:1],
{12}6,,7,
{12}8-5[24:1]*-4[24:1],,
{24}2,1,
{12}8w4[24:1],6,7,
{12}8-5[24:1]*-4[24:1],2,6,8w4[24:1],,
{24}2,1,
{12}8-5[24:1]*-4[24:1],6,7,8w4[24:1],3,1,
{4}8>7[6:1],
{12}3,,
{24}2,8,
{12}1-5[24:1]*-6[24:1],,7,1w5[24:1],,3,
{12}1p5[24:1]*p4[203606065:10000000],7,2,1/8w4[24:1],,
{24}2,1,
{12}8-5[24:1]*-4[24:1],,7,8w4[24:1],3,
{24}2,1,
{4}8>7[6:1],
{12}3,,2,
{12}8-4[24:1]*-3[24:1],,
{24}2,5,
{12}8w4[24:1],6,7,
{12}8q4[24:1]*q5[203606065:10000000],2,7,8/1w5[24:1],,
{24}7,8,
{12}1-4[24:1]*-5[24:1],3,2,1w5[24:1],6,
{24}7,8,
{4}1<2[6:1],6b,
{4}7<8[4:3],7<8[4:3],7<8[4:3],7<8[4:3],
{4}7,7,7,7b,
{4}2>1[4:3],2>1[4:3],2>1[4:3],2>1[4:3],
||{4}2,2,2,2-7[285317:100000]*p4[197959:100000]*p1[4:3],
{4}2,2,2,2-7[2642:1000]*p4[1775:1000]*p1[4:3],
{4}6h[4:1],,,
{12}8,3,2,
{12}1V73[12:1]*V74[1280000:100000],,,1/7w3[24:1],,6v3[12:3]*v4[12:3],7-3[24:1]b,,,7,,,
{12}2V84[12:1]*V86[1450000:100000],,3,2/1w5[24:1],,1-5[12:3],1>5[24:1]b,,,1,6,7,
{12}8V26[12:1]*V25[1280000:100000],,,8/2w6[24:1],,3v6[12:3]*v5[12:3],2-6[24:1]b,,,2,,,
{12}7V15[12:1]*V13[1450000:100000],,6,7/8w4[24:1],,8-4[12:3],8<4[24:1]b,,,8,3,2,
{12}1V73[12:1]*V74[1280000:100000],,,1w5[24:1]/8w4[24:1],,1v4[12:3]*v6[12:3],1>4[60:3]*>6[12:1]b/8,,,1,,,
{12}8V26[12:1]*V25[1280000:100000],,7,8w4[24:1]/1w5[24:1],,8v5[12:3]*v3[12:3],8<5[60:3]*<3[12:1]b/1,,,8,,,
{12}1-5[24:1]/8-4[24:1],,,1w5[24:1]/8w4[24:1],3/6,2/7,1w5[24:1]/8w4[24:1],,,1w5[24:1]/8w4[24:1],,,
{4}1-5[24:1]/8,1>1[4:1]*<1[4:1],1b,,
{4}1w5[8:17],1w5[8:17],1w5[8:17],1w5[8:17],
{4}1w5[8:17],1w5[8:17],1w5[8:17],1w5[8:17],
{4}1w5[8:17],1w5[8:17],1w5[8:17],1w5[8:17],
{4}1w5[8:17],1w5[8:17],1w5[8:17],1w5[8:17],
{4}1w5[8:17],1w5[8:17],1w5[8:17],1w5[8:17],
{4}1w5[8:17],1w5[8:17],1w5[8:17],1w5[8:17],
{4}1,1,1,1,
{4}1,1,1,1,
{4}7<8[4:3],7<8[4:3],7<8[4:3],7<8[4:3],
{4}7<8[4:3],7<8[4:3],7<8[4:3],7<8[4:3],
{4}6>7[4:3],6>7[4:3],6>7[4:3],6>7[4:3],
{4}6,6,6
,E
