&title=狐子ちゃんのココカラ脱騒曲
&artist=南ノ南
&first=-0.9
&lv_6=14+
&des_6=WYBXXJ
&inote_6=
(240){4},,,,,,,,2h[8:1]/6h[8:1],
7h[8:1]/3h[8:1],6/2,7h[8:1]/3h[8:1],
2h[8:1]/6h[8:1],7/3,B2/B3/E3,B7/B6/E7,
2h[8:1]/5h[8:1],7h[8:1]/4h[8:1],5/2,7h[8:1]/4h[8:1],
2h[8:1]/5h[8:1],4/7,B2/B3/E3,B7/B6/E7,
2h[8:1]/4h[8:1],7h[8:1]/5h[8:1],2/4,7h[8:1]/5h[8:1],
2h[8:1]/4h[8:1],7/5,B2/B3/E3,B7/B6/E7,
{8}1,1,3,3,5,5,7,7,
1,2,3,4,{16}6x,5x,6x,5x,{4}6x-1[8:1],
{8}2b-5[8:1],2,7-4[8:1],7,3-8[8:1],3,6-3[8:1],6,
2-7[8:1],2,5-8[8:1],5,1-4[8:1],1,6<1[8:1],6,
2>5[8:1],2,7-4[8:1],7,3-8[8:1],3,6,7xh[8:3],
,5,4,3,2/8x,2,2/4x,2,
6<1[8:1],6,4p7[8:1],4,5q2[8:1],5,3>8[8:1],3,
5q2[8:1],5,4p7[8:1],4,6<1[8:1],6,3-8[8:1],3,
7-4[8:1],7,2-5[8:1],2,{4}6<1[8:1],{8}4,4h[4:1],
{16},,6,5,{8}6,4/7,{4}2/1-5[8:1],1b/8b,
7-4[8:1],8,7<4[8:1],8,
7-4[8:1],1-5[8:1],8-4[8:1],2,
3-1[8:1],3/5-7[8:1],5/4-8[8:1],4,
1-5[8:1]/6-8[8:1],1/6,8x-4[8:1]/3x-1[8:1],8x/3x,
7-3[8:1],5-1[8:1],4-8[8:1],2,
1v4[8:1]/7v4[8:1],7/1,{16}6,5,{8}6,{16}3,4,{8}3,
{4}7-4[8:1],4-1[8:1],1-6[8:1],3,
{8}7/4,{16}6,5,{8}6,7,2/5,{16}3,4,{8}3,2,
{4}8h[4:1],4h[4:1],7h[4:1],3h[4:1],
6h[4:1],2h[4:1],5h[4:1],1h[4:1],
4h[4:1],8h[4:1],3h[4:1],7h[4:1],
2h[4:1],6h[4:1],1h[4:1],6,
{2}6h[4:1]/1h[4:1],1h[4:1]/6h[4:1],
1h[4:1]/6h[4:1],1h[4:1]/6h[4:1],
6xh[4:1]/1x-5[8:1],4h[4:1]/6x-2[8:1],
{4}3/5,2,6/4,7,
{8}8,8,2,2,6,6,4,4,
6,5,3,4,8,7,1,2,
6,6,5,5,7,7,4,4,
{4}8-4[8:1],8/1-5[8:1],1/7-4[8:1],7/3,
{8}2xh[16:1]/1xh[16:1],2xh[16:1]/1xh[16:1],3xh[16:1]/8xh[16:1],3xh[16:1]/8xh[16:1],4xh[16:1]/7xh[16:1],4xh[16:1]/7xh[16:1],5xh[16:1]/6xh[16:1],5xh[16:1]/6xh[16:1],
1xh[16:1]/8xh[16:1],2xh[16:1]/7xh[16:1],3xh[16:1]/6xh[16:1],4xh[16:1]/5xh[16:1],{32}2,3,4,5,6,7,8,1,2q5[2:3],3,4,5,6,7,8,1,
{1}2b,
{4},,,8x-4[8:1],
5b-2[8:1],5/7-3[8:1],7/1h[8:1],2h[8:1],
{8}7/5,8,4/2,1,{16}6,5,{8}6,{16}3,4,{8}3,
{4}2-5[8:1],2/6-1[8:1],{8}6/4,3>8[8:1],,3/5,
,6,7/5,8,{4}1w5[8:1],1,
2h[4:3]/7>1[8:1],7<5[8:1],7-3[8:1],7,
{8}1,2,3/7,4,{4}6-8[8:1]/5-1[8:1],5/6,
{32}2x,3,{16}4h[16:3],{32},,,,8x,7,{16}6h[16:3],{32},,,,1x,2,{16}3h[16:3],{32},,,,7x,6,{16}5h[16:3],{32},,,,4x,
3,{16}2h[16:3],{32},,,,6x,7,{16}8h[16:3],,,{4}5w1[8:1],5b,
7>3[4:1],3<7[4:1],7-3[8:1],2,
{8}1>4[8:1],1,7<4[8:1],7,{4}8-4[8:1],8/1,
7/2-5[8:1],1/2,{8}7-4[8:1],8,7,1x>5[4:1],
,6,7,8,{4}1v6[8:1]*v4[8:1],1,
7-5[8:1],7/1-3[8:1],1/4-8[8:1],4/5,
2-5[8:1]/6-1[8:1],6/2,7-4[8:1]/3-8[8:1],3/7,
{8}1/5,1,1/3,1,8/6,8,8/2,8,
{16}2,1,2,1,2,1,2,1,{4}2-6[8:1],Cf/B2/B6,
{8}5,6,7,8,{4}1>4[8:1],1x<6[8:1],
1x-5[8:1],1x-6[8:1],1x-4[8:1],1x,
{8}6,5,6,7,{4}8<5[8:1],8x>3[8:1],
8bx-4[8:1],8bx-3[8:1],8bx-5[8:1],8bx,
{8}1,2,3,4,{4}5>2[8:1],5x<8b[8:1],
5x-1b[8:1],5x-8b[8:1],5x-2b[8:1],5x,
{8}7,7,3,3,6,6,2,2,
{16}7,8,6,1,5,2,4,3,{4}Cf,{32}2,3,4,5,6,7,8,1,
{8}2-5[8:1],6,2,7,4-8[8:1],6,4,5,
{24}2x,1x,2x,1x,2x,1x,{8}2x,8,7/4,6,3/5,2,
7,7,6/8,{16}2,1,{8}2,2,3/1,{16}6,5,
{8}6,6,5/7,4/6,{4}3/5-8[8:1]*-2[8:1],5,
{8}7<5b[8:1],7,8p4[8:1],8,1q5b[8:1],1,2>4[8:1],2,
7-3b[8:1],7,8-4[8:1],8,1-5b[8:1],1,2-6[8:1],2,
7p3b[8:1],7,8-4[8:1],8,1-5b[8:1],1,2q6[8:1],2,
8,8,7/1,6/2,{4}3-8[8:1]/5-8[8:1],3b/5b,
{16}6bx,5,6,5,{8}6,{16}3bx,4,3,4,{8}3,{16}7bx,8,7,8,
{8}7,{16}2bx,1,2,1,{8}2,{16}7bx,6x,5x,4x,1bx,2x,3x,4x,
{8}8h[16:1],8h[16:1],7h[16:1]/1h[16:1],7h[16:1]/1h[16:1],6h[16:1]/2h[16:1],6h[16:1]/2h[16:1],{4}3b/5b,
{8}1h[16:1],1h[16:1],2h[16:1]/8h[16:1],2h[16:1]/8h[16:1],3h[16:1]/7h[16:1],3h[16:1]/7h[16:1],{4}6b/4b,
{16}7b-4[16:1],,,3b-8[16:1],,,{8}6b-1[16:1],{16},2b-5[16:1],,,{4}8b-4[16:1],
{6}1h[12:1],2h[12:1],3h[12:1],4h[12:1]/8h[12:1],7h[12:1]/3h[12:1],6h[12:1]/2h[12:1],
{16}1x,5,1,5,3x,4,3,4,2x,6,2,6,5x,7,5,7,
{32}2,3,4,5,6,7,8,1,2,3,4,5,6,7,8,1,{2}2b/Cfh[4:1],
{4}6/4x-1[4:27],7,6,7,
5,8,5,8,
B5/E6,B8/E8,B5/E6,B8/E8,
E6/D6/A5,A8/D8/E8,E6/D6/A5,A8/D8/E8,
6,7,6,7,
5,8,5,8,
B5/E6,B8/E8,B5/E6,B8/E8,
E6/D6/A5,A8/D8/E8,E6/D6/A5,A8/D8/E8,
{2}1,2,
{4}3,4,5-1[8:1],1w5b[8:1],
{2}Cf/B1/B5,{4}7/8-4[8:1],8/2,
{8}3-8[8:1],7-4[8:1],3<2[4:1],7,{4}3,E6f/B6/B5,
1q5[8:1]/5q1[8:1],1<6[8:1]/5>2[8:1],5x/1x-5[8:1],1x/5x,
{8}1x/5x,4x/8x,3x/7x,2x/6x,{4}5x/1w5b[8:1],1b,
{32}2b,3,{16}4h[16:3],{32},,,,8b,7,{16}6h[16:3],{32},,,,1b,2,{16}3h[16:3],{32},,,,7b,6,{16}5h[16:3],,,{8}2-5[8:1],
1,2/8-4[8:1],7,{4}8>3[8:1]/4<7[8:1],4x/8x,
{8}1/5,1,2/6,6,3/7,3,8/4>1b[8:1],8,
{4}4<7b[8:1],4-8b[8:1],4w8[8:1],4x,
{8}6-8b[8:1],6,5-1[8:1],5,4-8b[8:1],4,3-1[8:1],3,
6-2b[8:1],6,5-1[8:1],5,4-8b[8:1],4,3-7[8:1],3,
6q2b[8:1],6,5-1[8:1],5,4-8b[8:1],4,3p7[8:1],3,
{4}5w1b[8:1],5x,4w8b[8:1],4x,
{8}2-5[8:1],1,{4}2/8,{8}7-4[8:1],8,{4}7/1,
{8}2-6[8:1],6-2[8:1],2<3b[4:1],7,{4}7,B7/B8/E8,
{8}6-8[8:1],5-1[8:1],6,5,7-4[8:1],8-3[8:1],7,8,
{16}6bx,7x,8x,1x,2x,3x,4x,5x,{32}4,3,2,1,8,7,6,5,4w8b[8:1],3,2,1,8,7,6,5,
{1}4/Cf/B4/B8/A8,
{4}7h[4:1],5,2h[4:1],4,
{8}6/5,6,4/3,3,6/5,7,4/3,2,
7/5,8,4/2,1,{4}8h[4:1]/B3,5,
{8}4/7,6,5,6,7-4[8:1],7,1,1,
5/2,3,4,3,2-5[8:1],2,8,8,
4/7,6,5,7,8-4[8:1],8,2,2,
3/5,{16}6,4,{8}6,7/3,{4}8v5[8:1]/2v5[8:1],2b/8b/Cf,
{8}7x/3x,6x/2x,7x/3x,6x/2x,{4}3x/7x,{8}2x/6x,3x/7x,
2x/6x,3x/7x,{4}6x/2x,E3f/B2/B3,E7f/B7/B6,
{8}2x/6x,3x/7x,2x/6x,3x/7x,{4}6x/2x,{8}7x/3x,6x/2x,
7x/3x,6x/2x,{4}3x/7x,E3f/B2/B3,E7f/B7/B6,
{8}2x/5x,4x/7x,2x/5x,4x/7x,{4}2x/5x,{8}4x/7x,2x/5x,
4x/7x,2x/5x,{4}4x/7x,E3f/B2/B3,E7f/B7/B6,
{8}3/4,3/4,2/5,2/5,1/6,1/6,7/8,7/8,
1h[16:1]/8h[16:1],2h[16:1]/7h[16:1],3h[16:1]/6h[16:1],4h[16:1]/5h[16:1],{32}2,1,8,7,6,5,4,3,{4}2-6b[8:1],
{1}B2f/8bp4p8V64V28[4:7]`C`B6,
E
