&title=八连臭火
&artist=压力
&first=-0.03
&lv_5=1
&des_5=
&inote_5=
(125)
E
&lv_7=压13+
&des_7=torli
&inote_7=
(105){8},E8/B7/B6/E6/B8/B1/E2/B2/B3/E4,,,,,,,,E1/E8/E7/E6/E5/E4/E3/E2,
,,,,,,,1s5[16:1],
,,,,,,,5-8>1[8:1]*>4-1[8:1],
,,,,,,,8>8[4:1],
{4},,,{16},,{64}8b/1b,
Cf,{4},,,{16},,,{32},{8}E6/B6/B7/E8/B8/E2/B1/B2/B3/E4,
,,,,,,,8pp8[8:1],
{16},,,,,,,,1b,1b,1b,1b,
{8}1b,8/5,{16}6,6,{8}Cf/A7/B7/A1/B1/B4/A4,{16}Cf/A7/B7/A1/B1/B4/A4,,,1,1s5[16:1],1,{8}6,
1,7,{16}8,8,{8}Cf/B7/B6/B2/B3,{16}Cf/B7/B6/B3/B2,,,2,2,2,{8}Cf/E7/E3/E1/D7/D1/A5/A4/D3,
6,7,{16}5,5,{8}E8f/B7/B6/E6/B8/E2/B1/B2/B3/E4,{16}Cf,,,4,4,4,{8}A3/B3/B7/A7/Cf,
8,4/1,{16}2,2,{8}B5/A5/D5/A4/A1/B1/D4/Cf,{16}6h[16:3],,,8,8,8,{8}B8/B1/B2/E3/B3/E4/B4/B5/E6/B6/E7/E8/B7/E2,
C,5/2,{16}4-1<8[8:1]*<5-8[8:1],3,{8}5,{16},,,2,2,2,{64}8b/1b,7b/2b,6b/3b,5b/4b,,,,,,,,,,,,,{8}7/4,
{16}5qq4[8:1]*<7[8:1],6,{8}4,{16},,,1,1,1,7b/6b,7b/6b,
{8}7b/6b,8/5,{16}2s6[16:1],2,1,4,2,4,,8,8,1,{8}7/2,
3/6,Cf/B5/A5/B1/A1,,4qq4[8:1],8pp1<4[8:3],Cf,{16},,,,,,,,3,
3,{8}4<7[2:1],5/1,1b-5[0.8571##0.2857]*-6[0.8571##0.2857],{16},4b,,,{4}1b,
{16}7,6,5h[8:3],4,,,{8}7-3[0.8571##0.1429],{16}3b,3b-7[0.4286##0.1429],3b,3b,
{4}3b/7b,{8}5/2,{16}3/4-8<5[16:9]*-8>3[16:9],4/3,,1b,,,{8}6b/2b,4b,
{16},A7/D7/A6/A5/D6/D5/D4/A3/D3/A2/D2/A1/A4f,,,2-5[1##0.1429],1-5[1##0.1429],{8}8h[16:3],{16}7h[8:1],,,2b,{8}1b,7b,
{64}8b/1b,7b/2b,6b/3b,5b/4b,,,,,,,,,,,,,{16}6,6,5,7,6,8,7/5,6/5,8/5,6,5,7,
6,5,6/5,6,8/5,7,5/6,7,6/8,7,5/6,8,6,5/8,7,6,
7h[8:1]/5h[8:1],,,,,,,1b,1b,1b,{8}1b,{16}3bh[8:1]/8bh[8:1],,,Cf/D2/E2/E6/D6/E8/D8/E4/D4,
,,,,,,,4b/2b,{4}2b/4b,{8}E7f,{16}D2f,Cf,
,,{8}8bh[4:3],{4},,{16},,{48}1bx,1bx,1bx,1bx,1bx,1bx,
1bx,1bx,1bx,1bx,1bx,1bx,1bx,1bx,1bx,1bx,1bx,1bx,1bx,1bx,1bx,1bx,1bx,1bx,1bx,1bx,1bx,1bx,1bx,1bx,{16}1bx,,,,,3,4,5,
1,1,{8}2-6[16:1],{16}3,4,{8}2,4/8-4[16:1],{16}6,5,8,2,2,2,
2,2,{8}2-4[16:1],{16}8,8,{8}2,6/5-1[16:1],{16}4,3,{8}5,{16}8,8,
8,8,{8}8-4[16:1],{16}7,1,{8}8,5/3-6[16:1],8,3/1,{16}2,7,
{8}4/8,4-1[16:1],7-3[16:1],4,7,1b-5b[4:1],{64},,,1b,,,,,,,,,,,,4b,
,,,,,,,,{8}2<7[16:1],6,2/4,5,4/6-1[8:1],{16}7,5,6,2,
2,2,{8}2v5[16:1],3/4,{16}2,8,{8}8v3[16:1],2/5,{16}8,5b,5b,5b,
5b,5b/4b,{48},,{12}4b/3b,3b/2b,2b/1b,1b/8b,{16}1bh[8:1]/8bh[8:1],,,,,8b-4b[16:1],7b/1b,7b/1b,
7b/1b,8b,{8}D2f/A2/B2/D3/A3/D4/B3/E4,{16}Cf,,,6bh[16:9],,,{8}4bh[8:3],,,,3>5b[4:1],
4,5<3[4:1],4,3>5b[4:1],4,5<3[4:1],
4,3>5b[4:1],4,5<3[4:1],4,3>5b[4:1],4,5<3[4:1],
4,3>5b[4:1],4,5<3[4:1],4,3>5b[4:1],4,5<3[4:1],
4,3>5b[4:1],4,5<3[4:1],4,3,4,4h[4:1],
,6<4b[4:1],5,4>6[4:1],5,6<4b[4:1],5,4>6[4:1],
5,6<4b[4:1],5,4>6[4:1],5,6<4b[4:1],5,4>6[4:1],
5,6<4b[4:1],5,4>6[4:1],{2}5,
E
