&title=礎の花冠
&artist=Roselia
&first=0.04
&des=超兽武装
&lv_5=13+
&inote_5=(174)
{1},,
{4},,,{16}3,6,4,5,
{16}2bh[16:3],,,8h[16:3],,,1,,5,2,4,3,
{16}7bh[16:3],,,2h[16:3],,,8,,17,,26,,
{16}7bh[16:3],,,1h[16:3],,,8,,3,6,4,5,
{16}1bh[16:3],,,7h[16:3],,,8,,6,2,5,3,
{16}7bh[16:3],,,1h[16:3],,,8,,4,7,5,6,
{16}2bh[16:3],,,7h[16:3],,,1,,82,,73,,
{16}2bh[16:3],,,8h[16:3],,,1,,6,3,5,4,
{16}8b,,,71,,,26,,1^6[8:1],,5qq4-6v7b[8:13],,
{16},,,,,,,,,,,,,,,,
{16},,,,,,,,,,,,,,,,
{16}8h[4:3]/2,,,,2,,,,2,,,,2,,,,
{16}7^4[4:1]/1,,,,4^1[4:1],,,,1,,,,5,,,,
{16}7h[4:3]/3,,,,3,,,,3,,,,3qq2[4:1],,,,
{16}4,,,,6pp7[4:1],,,,5,,,,3,,2,,
{16}1h[4:3]/7,,,,7,,,,7,,,,7,,,,
{16}2^5[4:1]/8,,,,5^8[4:1],,,,8,,,,4,,,,
{16}2h[4:3]/6,,,,6,,,,6,,,,6q3[4:1],,,,
{16}8,,,,2q7[4:1],,,,4,,,,8b,,,,
{16}1/6h[4:1],,,,5,,5,,7,,4,,6,,4,,
{16}5q3[4:1],,,,3p6[4:1],,,,4h[4:1],,,,,,,,
{16}5h[4:1]/2,,,,8,,8,,6,,1,,5,,1,,
{16}4>8[4:1],,,,8<4[4:1],,,,4,,,,1,,2,,
{16}8/3h[4:1],,,,4,,4,,2,,5,,3,,5,,
{16}4p6[4:1],,,,6q3[4:1],,,,5h[4:1],,,,,,,,
{16}4h[4:1]/7,,,,3^1[8:1],,4,,5h[4:1],,,,6^8[8:1],,5,,
{16}4qq5[8:3],,,,,,,,8,,8,,8,,8,,
{16}E5f,,,,E4,,,,E3,,,,E2,,,,
{16}E1/Cf,,,,E8,,,,E7,,,,E6,,,,
{16}4^1[4:1],,,,5,,,,5^8[4:1],,,,4,,,,
{16}4q5[2:1],,,,7,,,,7,,,,7,,,,
{16}E5f,,,,E6,,,,E7,,,,E8,,,,
{16}E1/Cf,,,,E2,,,,E3,,,,E4,,,,
{16}5-8[4:1],,,,4,,,,4-1[4:1],,,,5,,,,
{16}5-7-4-8[2:1],,,,2,,,,2,,,,2,,,,
{16}E2f/6,,6h[8:3],,E3,,,,E4,,,,E5,,,,
{16}E6f/2,,2h[8:3],,E7,,,,E8,,,,E1,,,,
{16}2qq7[2:1],,2,,7,,,,4,,,,5,,,,
{16}6^3[4:1],,6,,3,,,,1,,2,8,2x-6b[8:1],,,,
{16}6b,,,,78,,71,,72,,73,,7-3b[8:1]/4,,65,,
{16}3b,,,,21,,28,,27,,26,,3,5,3,5,
{16}4b,,2-4[8:1],,1,,6b,,8-6[8:1],,5,,3b,,1-5[8:1],,
{16}5,,7b,,7b,,4,5,3,5,4,6,4>5[1:2],5,3,6,
{16}E1f,,,,,,,,,,,,,,,,
{16},,,,,,,,,,,,,,,,
{16}Ch[1:1],,,,,,,,,,,,,,,,
{16},,,,,,4,,4w8[8:1],,,,,,,,
{16}2bq6[8:1],,1,,7,,8-4[8:1],,,,8/4pp5[8:2],,,,2,,
{16}2h[4:1],,,,4,,3,,6<8[8:1]/2>5[8:1],,,,6pp5[4:1]/2,,,,
{16}3,,,,2,,1-5[8:1],,,,1/5v4-2[4:1],,,,8,,
{16}8h[4:1],,,,1,,6,,2>5[8:1]/5<8[8:1],,,,2/5,,,,
{16}3q7[8:1],,2,,8,,1-5[8:1],,,,1/5pp6[8:2]*v4-2[4:1],,,,,,,
{16},,,1,,3-8[8:1]/7-4[8:1],,,,37,,,,15,,
{16}1V73[4:1]/5,,,,12,,2-6-4b[4:1],,,,4w8[8:1]/2,,4,,,,
{16}A8f/D1/D8/A1/D2/A7/D7,,,,26,,,,5,4,6,3,7,2,8,1,
{16}7bp3[8:1],,8,,2,,1-5[8:1],,,,1/5qq4[8:2],,,,7,,
{16}7h[4:1],,,,5,,6,,3>1[8:1]/7<4[8:1],,,,3qq6[8:3]/7,,,,
{16}5,,,,7,,7bqq5b[8:1],,,,4bqq2b[8:1],,,,8,,
{16}8w4[8:1],,,,8,,,,6<3[4:1],,1,,3bV52[8:2],,,,
{16},,,,8,,,,6<3b[4:1],,1,,3bV52[8:2],,,,
{16},,,,8,,,,2-5-3b[4:1],,5,,3b>6[4:1],,,,
{16},,,,5,,5,,54,,36,,27,,3,4,
{16}2,,6,5,7,,3,1,2,8,1,7,2,6,3,5,
{16}4z8[1:2],,,,,,,,,,,,,,,,
{16},,,,,,,,,,,,,,,,
{16}5s1[1:2],,,,,,,,,,,,,,,,
{16},,,,,,,,,,,,,,,,
{16}2,,,,2,,,,2,,,,2,,,,
{16}8h[4:3]/3,,,,3,,,,3,,,,3,,,,
{16}2h[4:3]/6,,,,6,,,,6,,,,6,,,,
{16}45,,,,27,,,,3,6,3,,8,1,8,1,
{16}8b,,2,4,2,4,3b,,7,5,7,5,6b,,3,4,3,4,2b,,6,5,6,5,7b,4,5,4,
{16}6b,,2,5,3,4,1b,,7,4,6,5,8b,,3,6,4,5,1b,,6,5,7,4,5b,2,4,3,
{16}8h[8:1],,,5h[8:1]/7h[8:1],,,48,,3,7,2,6,
{16}1h[8:1],,,2h[8:1]/4h[8:1],,,15,,3/7-3[8:1],,2,2,
{16}7x,,,,14,,14,,14,,25,,25,,2-6[8:1]/5,,
{16}7,7,2x,,1xh[8:1],,5,5,{24}8b,7,6,4,3,2,7,6,5,3,2,1,
{16}4xq8[1:1]/8xq4[1:1],,,,,,,,,,,,,,,,
{16},,,,,,,,,,,,,,,,
{16}26,,,,3,,4,,,,4,,5,,6,,
{16}7,,,,5,,6,,,,6,,7,,8,,
{16}5xp1b[1:1]/1xp5b[1:1],,,,,,,,,,,,,,,,
{16},,,,,,,,,,,,,,,,
{16}73,,,,6,,5,,,,5,,4,,3,,
{16}2x,,,,6,,57,,,,3,,24,,,,
{16}8h[8:1]/2b>6[2:1],,,,8h[8:1],,,,8h[8:1],,,,8h[8:1],,,,
{16}1h[8:1]/7<3[2:1],,,,1h[8:1],,,,1h[8:1],,,,1h[8:1],,,,
{16}8h[8:1]/2h[8:1],,,,8h[8:1]/2h[8:1],,,,7h[8:1]/3h[8:1],,,,7h[8:1]/3h[8:1],,,,
{16}6h[8:1]/4h[8:1],,,,6h[8:1]/4h[8:1],,,,3/7w3[8:1],,,,,,,,
{16}1b,,,,24,,24,,35,,35,,4-1[8:1]/6,,46,,
{16}8b,,,,57,,57,,46,,46,,7,3,8,2,
{16}7b,,5-7b[8:1],,4,,1b,,3-1b[8:1],,8,,6b,,4-8b[8:1],,
{16}1,,3b,,3b,,7,2,6,3,7,2,5,4,6,3,
{16}8bh[4:3],,,,5,,5,,5,,5,,5,,5,,
{16}47,,47,,63,,63,,25,,25,,1-5[8:1],7,4,6,
{16}1b,,,,3,5,7,5,2,4,6,4,1b,,7b-4-6[4:1]/3b-8-2[4:1],,
{16},,,,,,,,,,,,2,4,5,7,
{16}1b^4qq5[2:3],,,,,,,,,,,,,,,,
{16},,,,,,,,,,,,,,,,
{16}8b^5pp4[2:3]*^3qq4b[2:3],,,,,,,,,,,,,,,,
{16},,,,,,,,,,,,,,,,
{16}6p2[8:1],,7,,1,,8-4[8:1],,,,8v7-5[4:1]/4qq3[8:2],,,,,,,
{16},,,8,,6^1[8:1]/2^5[8:1],,,,62,,,,84,,
{16}8V27[4:1]/4,,,,87,,6-3-5b[4:1],,,,36,,2,,1,,
{16}7/8b,,6,5,7,,3,4,2,1,3,8,4,7,5,6,
{16}2bq6[8:1],,1,,7,,8-4[8:1],,,,8/4pp5[8:2],,,,2,,
{16}2h[4:1],,,
,4,,3,,6<8[8:1]/2>5[8:1],,,,6q3[6:1]/2,,,,
{16}1,,,,6,,2bpp4b[8:1]/5bpp7[8:1],,,,2/5b>6[16:3],,,,{32}D4f,D3,D2,D1,
{16}D8,,,,4x/8x,,,,6^8[8:1],,3^8[8:1],,6bV47[8:2],,,,
{16},,2,,2,,,,3^8[8:1]/6^8[8:1],,8,,6bV47[8:2]/3b,,,,
{16},,2,,2,,,,6-4b[8:1]/4-7b[8:1],,3,,6b<3[4:1]/4b,,,,
{16},,5,,5h[4:1],,,,4,,5,,2,4,3,4,
{16}1,,7,5,6,5,8,,{32}2b/7b,36,{16}45,,,1-5b[8:1],,8,8,
{16}1x-7-2-6[4:3]`Cf,,,,,,,,,,,,,,,,
{16}2x-6-3-5[4:3],,,,,,,,,,,,,,,,
{16}8b,,,,47,,47,,25,,25,,36,,8,1,
{16}8b,,2,5,3,4,1b,,7,4,6,5,8b,,,,
{16}24,,1,,34,,1,,24,,3,4,3,,28,,
{16}28,,3,,12,,3,,28,,3,4,3,,25,,
{16}2-8[8:1]/5,,3,4,2,,6,,7-1[8:1]/1,,6,5,7,,4,,
{16}2b/8b,,3,5,3,,8,,1-5[8:1],7,2,6,1b,,,,
{16}7x/5x,,8,,65,,8,,75,,6,5,6,,71,,
{16}71,,6,,87,,6,,71,,6<4b[4:1],5,6,,D7f/4,,
{16},,,,5,,5,,6,4,7,3,8,2,1,,
{16}42,,53,,64,,75,,8-4[8:1],2,7,3,8b,,,,
{16}35,,2,,65,,8,,37,,2,8,2,,1,,
{16}64,,7,,34,,1,,62,,7,1,7,,8,,
{16}3-8[8:1]/7,,2,1,3,,7,,6-1[8:1]/2,,7,8,6,,2,,
{16}4b^1[8:1]/8b^5[8:1],,,,48,,,,2-6[8:1],5,3,8,2b,,,,
{16}57,,1,,58,,4,,57,,8,1,8,,6,,
{16}42,,8,,41,,5,,42,,1,8,1,,3,,
{16}2b/6b,,,,34,,45,,56,,78,,18,,12,,
{16}3b,7,5,6,4,5,2b,6,4,5,3,4,1b-5b[8:1],5,3,4,
{16}1bpp3^4-2-5[4:11]*qq7^6-8-5[4:11]/Cf,,,,,,,,,,,,,,,,
{16},,,,,,,,,,,,,,,,
{16},,,,,,,,,,,,,,,,
{16},,,,,,3,3,4-7[8:1],,2-6b[8:1],,4,,B2f,,
{16},,,,,,,,,,,,,,,,
