&title=ビビビビ[DX]
&artist=Frog96
&first=-0
&des=om
&des_5=om
&lv_5=14
&inote_5=(201){4},3h[8:1]/5h[8:1],4h[8:1]/6h[8:1],2h[8:1]/5h[8:1],
4h[8:1]/7h[8:1],6h[8:1]/1h[8:1],8h[8:1]/3h[8:1],1h[8:1]/5h[8:1],
4h[8:1]/8h[8:1],(175){32}E6,{16},{32}B5,{16},B4,{32},E4,{1},,{4},,{16},,,{4}2-5[8:1],
{16}8,{8},{16}6<8[8:1],,6,{8}4,
3,2,{4}1-6[8:1],{16}5,{8},{16}4,,4,{8}6<8[8:1],
3,3,{4}2-5[8:1],{16}8,{8},{16}6<8[8:1],,6,{8}4,
3,2,{4}1-6[8:1],{16}5,{8},{16}4,,4,{8}6,
3h[16:1],3h[16:1],{4}7-4[8:1],{16}1,{8},{16}3>1[8:1],,3,{8}5,
6,7,{4}8-3[8:1],{16}4,{8},{16}5,,5,{8}3>1[8:1],
6,6,{4}7-4[8:1],{16}1,{8},{16}3>1[8:1],,3,{8}5,
6,7,{4}8-3[8:1],{16}4,{8},{16}5,,5,{8}3,
6h[16:1],6h[16:1],{4}2-5[8:1],{16}7,{8},{16}6<8-4[4:1],,6,{8}4,
3,2,{4}1-6[8:1],{16}5,{8},{16}4,,4,{8}6<8-4[4:1],
3,3,{4}2-5[8:1],{16}7,{8},{16}6,,6-8-5[4:1],{8}4,
3,2,{4}1-6[8:1],{16}5,{8},{16}4,,4,{8}6,
{16}1,2,3,4,{4}5/7-4[8:1],{16}2,{8},{16}3>1-5[4:1],,3,{8}5,
6,7,8-3[8:1]*-3[8:1],8,{16}4,{8},{16}5,,5,{8}3>1-5[4:1],
6,6,{4}7-4[8:1],{16}2,{8},{16}3,,3-1-4[4:1],{8}5,
6,7,{4}8-3[8:1],{16}4,{8},{16}5,,5,{8}3,
{16}8,7,6,5,{4}4/2-7[2:7],{2}2-8-3-6-4[2:5],
{1},,,{8},2h[4:1],
,1,3,{16}7-5[12:1],8,,8,{8}7,
4,3,{4}2h[4:1],{8}1,{16}7-5[12:1],8,,8,{8}7,
4,3,2,2h[8:1],8,{16}1-5[8:1],7,,7,{8}1,
4,4,2,2h[8:1],8,{16}1-5-3[24:5],7,,7,{8}1,
{16}6,7,8,1,{4}2b-5[8:1],{8}2,{16}8,7,{4}6x/2b-5[8:1],
{8}2,{16}8,7,{4}6x/2b-5[8:1],{8}2,{16}8,7,{4}6x/2b-5[8:1],
{8}2,{16}8,7,{4}2b/6x<8[8:1],{8}5V31-4[8:3],5,,8,
7,6,5h[8:1],1w5[16:3],,1,{4},{8},7h[4:1],
,8,6,{16}2-4[12:1],1,,1,{8}2,
5,6,{4}7h[4:1],{8}8,{16}2>4[12:1],1,,1,{8}2,
5,6,7,7h[8:1],1,{16}8-4[8:1],2,,2,{8}8,
5,5,7,7h[8:1],1,8-4<6[24:5],8xh,1xh,
2xh,3xh,{4}4h[2:1],,{32}B1,B2,{16}E3,{4},{8},{4}5h[2:1],
,{32}B8,B7,{16}E7,{4},{8},{4}2h[2:1],
,{32}B6,B5,{16}B4,{4},{8},{4}7h[2:1],
,{32}B3,B4,{16}B5,{4},{8},4/3,
B3/B4,,6/5,{4}B6/B5,
{8}7/8,B8/B7,,2/1,B1/B2,3/8,,6/5,
B6/B5,7/4,{4}Ch[1:1],,8>6[4:1],
,{8},{16}E1,E8,{8}E7,C,B3/E4/B4,8x,
7x,6x,{4}5x/3b-8[4:21],{8}6,5h[8:1],,6,
{4}5h[8:1],{8}7,{16}5,6,{8}5,7h[8:1],,{16}7,6,
{192}5h,4h,{16},,,{64},,,{192},{4}2,{8}3,4h[8:1],,3,
{4}4h[8:1],{16}3,4,3,4,{8}3,2h[8:1],,{16}2,3,
{192}4h,5h,{16},,,{64},,,{192},{4}7,{8}6,5h[8:1],,6,
{4}5h[8:1],{16}7,5,6,5,{8}7,7h[8:1],,1/6,
5/2,3/4,,2>4[8:1],,2-6[8:1],6-2[8:1],2,
,8>1-3[8:1]*<7-5[8:1],,8,,E7/B6,E8/B7,1,
2,3,4b/6<8[8:1],7,6/4q1[48:7],3,4/5p8[48:7],6,
5/3>1[8:1],2,3/6>4[8:1],7,6-1-4[4:1],3-7[8:1],{4},{8},6x/5x,
6<3[24:5],1>3[12:1],{4}6,{8}4>7[24:5],1<7[12:1],
{4}4,{8}6-1[8:1],5-2[8:1],6,5,,8h[8:1],
1h[8:1],2h[8:1],3-8[8:1],4,3/4,4,4/3-8[8:1],4,
4/3,4,5-2[8:1],6,6/5,6,6/5-2-4[4:1],6,
6/5,6,{4}7b,{8},5/7,4/6,5/3,
2/4,1-5[8:1]/3-7[8:1],,1<6[8:1]/3<6[8:1],,3/1,,8,
7,6,{4}5b/3h[12:49],{6}7x-1[24:1],7,B8/E1,
6x<8[24:1],6,B7/E8,5x-7[24:1],5,8x-2[24:1],
8,E2/B1,7x>1[24:1],7,E1/B8,6x-8[24:1],
6,1x-3[24:1],1,B2/E3,8x>2[24:1],8,
E2/B1,7x-1[24:1],{48}7,{4},{48}4/7<5[8:1],{16},,,{48},,7-3[8:1],{16},{48},,3-7[8:1],
{16},{48},,7,{16},,,{48},,1-7<6[8:1]*-3<4[8:1],{16},,,{48},,1,{16},,,{48},,B3/E3,{16},{48},,B2/E2,
{16},{48},,8,{16},{48},,7,{16},{48},,6,{16},{48},,2b/5-3[48:5],{16},{48},,5,{16},{48},,1-7[48:5],{16},{48},,1,{16},{48},,6-2[8:1],
{16},{48},,6,{16},{48},,3-5[48:5],{16},{48},,3,{16},{48},,6,{16},{48},,6pp8-5[8:3],{16},{48},,6qq5[48:13],{4},,{16},{48},,3x/4x,
{16},{48},,3>6[24:5],{16},{48},,8<6[12:1],{16},{48},,3,{16},,,{48},,5<2[24:5],
{16},{48},,8>2[12:1],{16},{48},,5,{16},,,{48},,3-8[8:1],{16},{48},,4-7[8:1],{16},{48},,3,{16},{48},,4,{16},,,{48},,1h[8:1],
{16},{48},,8h[8:1],{16},{48},,7h[8:1],{16},{48},,6-3[8:1],{16},{48},,5,{16},{48},,6-2[8:1],{16},{48},,4,{16},{48},,6-1[8:1],
{16},{48},,3,{16},{48},,6,{16},,,{48},,2-7[8:1],{16},{48},,1,{16},{48},,2-5[8:1],{16},{48},,8,{16},{48},,2-6-2[4:1],
{16},{48},,7,{16},{48},,2,{16},,,{48},,5b,{4},{16},{48},,1/3,{16},{48},,8/2,
{16},{48},,1/7,{16},{48},,6/8,{16},{48},,5-1[8:1]/7-3[8:1],{16},,,{48},,5>2[8:1]/7>2[8:1],{16},,,{48},,7/5,{4},{16},{48},,A5h[4:1],
{16},,,{48},,3,E6,B6,B7,E8,{12}8xh[48:79],{16},{48}1,{16},{48},,3,{16},,,{48},,3,
{16},,,{48},,4,{16},{48},,4,{16},,,{48},,2,{16},{48},,4,{16},,,{48},,4,
{16},,,{48},,4,{16},{48},,6,E4,B3,B2,E2,{12}1xh[48:79],{16},{48}8,{16},{48},,6,{16},,,{48},,6,
{16},,,{48},,5,{16},{48},,5,{16},,,{48},,7,{16},{48},,5,{16},,,{48},,5,
{16},,,{48},,5,{16},{48},,4/6,{16},{48},,3,{16},{48},,4/6,{16},{48},,2,{16},{48},,4/6,
{16},{48},,1,{16},{48},,4/6,{16},{48},,8,{16},{48},,5/3,{16},{48},,6,{16},{48},,5/3,{16},{48},,7,{16},{48},,5/3,
{16},{48},,8,{16},{48},,5/3,{16},{48},,1,{16},{48},,3,{24},5,{48},3,{24},{48}5,{24},{48}3,{24},5,{48},3,{24},{48}5,{24},{48}4,
{24},6,{48},4,{24},{48}6,{24},{48}4,{24},6,{48},4,{24},{48}6,{24},{48}4h[2:1],{16},{48},,E6,B5,B4,E4,{24},{48}E3,{24},E2,{48},E1,{24},{48}E8,{24},{48}E7/B6/A6fh[4:1]/D6h[4:1]/E6h[4:1],
{4},{16},,,{48},,3b/4b,{16},,,{48},,4/3,{16},{48},,2,{16},{48},,4,
{24},1,{12},{48}1,{24},{48}4,{16},{48},,2,{16},{48},,4,{24},1,{12},{48}1,{24},{48}4,{16},{48},,2,{16},{48},,4,
{24},1,{12},{48}1,{24},{48}4,{24},5,{48},6,{16},{48},,6/5,{16},{48},,7h[16:1],{16},{48},,6/5,{16},{48},,7,{16},{48},,5,
{24},8,{12},{48}8,{24},{48}5,{16},{48},,7,{16},{48},,5,{24},8,{12},{48}8,{24},{48}5,{16},{48},,7,{16},{48},,5,
{24},8,{12},{48}8,{24},{48}5,{24},4,{48},3,{16},{48},,5/3,{16},{48},,1,{16},{48},,3/5,{16},{48},,1,{16},{48},,5,
{24},2,{12},{48}2,{24},{48}5,{16},{48},,1,{16},{48},,5,{24},2,{12},{48}2,{24},{48}5,{16},{48},,1,{16},{48},,5-7[12:1],
{24},2,{12},{48}2,{24},{48}5,{16},{48},,1,{16},{48},,6/4,{16},{48},,8,{16},{48},,4/6,{16},{48},,8,{16},{48},,4,
{24},7,{48},5,{24},{48}7,{24},{48}4,{24},7,{48},5,{24},{48}7,{24},{48}4,{16},{48},,8<6[12:1],{16},{48},,4,{16},{48},,8,{16},{48},,4,
{24},5,{48},4,{24},{48}5,{24},{48}3/6,{16},,,{48},,1/2,{16},,,{48},,1,{16},{48},,4,{16},{48},,1,
{24},3,{48},8,{24},{48}3,{24},{48}1,{16},{48},,4,{16},{48},,1,{24},3,{12},{48}3,{24},{48}1,{16},{48},,4,{16},{48},,1>6[6:1]/2>6[6:1],
{16},{48},,4,{16},{48},,2/1,{16},,,{48},,8/7h[16:1],{6},{48}7h[16:1],{24},{48}8,{16},{48},,5-7[12:1],{16},{48},,8,
{16},{48},,5-3[12:1],{16},{48},,8,{16},{48},,5,{16},{48},,8,{24},6,{12},{48}6,{24},{48}8,{16},{48},,5,{16},{48},,7<3[6:1]/8<3[6:1],
{16},{48},,1,{16},{48},,8/7,{16},,,{48},,8/2h[16:1],{6},{48}2h[16:1],{24},{48}8<6[48:5],{16},{48},,3,{24},{48}3,{24},{48}8-5[8:1],
{16},{48},,4,{16},{48},,8,{16},{48},,4,{16},{48},,8,{24},3,{12},{48}3,{24},{48}8,{16},{48},,3h[16:1],{16},{48},,8,
{24},2,{48},1,{24},{48}2,{24},{48}8,{24},2,{48},1,{16},{48},,1/7h[16:1],{6},{48}7h[16:1],{24},{48}1>3[48:5],{16},{48},,6,{24},{48}6,{24},{48}1-4[8:1],
{16},{48},,7,{24},{48}7,{24},{48}1,{16},{48},,5,{16},{48},,1,{24},6,{12},{48}6,{24},{48}1,{16},{48},,5h[16:1],{16},{48},,1,
{24},7,{48},8,{24},{48}7,{24},{48}1,{24},7,{48},8,{16},{48},,4,{24},5,{48},4,{24},{48}5,{24},{48}3,{16},{48},,5,{24},{48}4,{24},{48}5,
{24},4,{48},6,{16},{48},,3,{24},4,{48},3,{24},{48}4,{24},{48}2,{16},{48},,6,{24},{48}5,{24},{48}6,{24},5,{48},7,{16},{48},,3,
{24},4,{48},3,{24},{48}4,{24},{48}1,{16},{48},,6,{24},{48}5,{24},{48}6,{24},5,{48},8,{16},{48},,3,{24},5,{48},3,{24},{48}5,{24},{48}1,
{16},{48},,6,{24},{48}4,{24},{48}6,{24},4,{48},8,{16},{48},,2,{24},1,{48},2,{24},{48}1,{24},{48}3,{16},{48},,7,{24},{48}8,{24},{48}7,
{24},8,{48},6,{16},{48},,2,{24},8,{48},2,{24},{48}8,{24},{48}3,{24},4,{48},3,{24},{48}4,{24},{48}2,{24},4,{48},3,{24},{48}4,{24},{48}3,
{24},4,{48},1,{24},{48}4,{24},{48}3,{24},5,{48},3,{24},{48}5,{24},{48}8,{24},5,{48},3,{24},{48}5,{24},{48}3,{24},5,{48},7,{24},{48}5,{24},{48}3,
{24},6,{48},3,{24},{48}6,{24},{48}5,{24},6,{48},3,{24},{48}6,{24},{48}3,{24},6,{48},4,{24},{48}6,{24},{48}3,{24},7,{48},3,{24},{48}7,{24},{48}2,
{24},7,{48},3,{24},{48}7,{24},{48}3,{24},7,{48},1,{24},{48}7,{24},{48}3,{24},8,{48},3,{24},{48}8,{24},{48}7,{24},8,{48},3,{24},{48}8,{24},{48}3,
{24},8,{48},6,{24},{48}8xh[32:1],{24},{48}8xh[32:1],{24},8xh[32:1],{48},8xh[32:1],{24},{48}8xh[32:1],{24},{48}8xh[32:1],{24},8xh[32:1],{48},8xh[32:1],{24},{48}8xh[32:1],{24},{48}8xh[32:1],{24},8xh[32:1],{48},8xh[32:1],{24},{48}8xh[32:1],{24},{48}8xh[32:1],
{24},8xh[32:1],{48},8xh[32:1],{24},{48}8xh[32:1],{24},{48}8xh[32:1],{24},8xh[32:1],{48},8xh[32:1],{24},{48}8xh[32:1],{24},{48}8xh[32:1],{24},8xh[32:1],{48},8xh[32:1],{24},{48}8xh[32:1],{24},{48}8xh[32:1],{24},8xh[32:1],{48},8xh[32:1],{24},{12}8xh[32:1],
{4},,{16},{64},,,B6,{16},{64},B5,{16},{96},{24}B4,,{8}B3,
{4},{16},{64},E7,{16},{64},E6,{16},{64},E5,{16},{96},{48}E4,{4},{16},,,A6,
{48},A5,{16},{48}4x,{16},,,{48},,2-5[8:1],{16},,,{48},,8,{6},{12}6<8[8:1],
{24},6,{48},4,{16},{48},,3,{16},{48},,2,{16},{48},,1-6[8:1],{16},,,{48},,5,{6},{12}4,
{24},4,{48},6<8[8:1],{16},{48},,3,{16},{48},,3,{16},{48},,2-5-3[16:3],{16},,,{48},,8,{6},{12}6<8-4[16:3],
{24},6,{48},4,{16},{48},,3,{16},{48},,2,{16},{48},,1-6[8:1],{16},,,{48},,5,{6},{12}4,
{24},4,{48},6,{16},{48},,2h[16:1],{16},{48},,2h[16:1],{16},{48},,7-4[8:1],{16},,,{48},,1,{6},{12}3>1[8:1],
{24},3,{48},5,{16},{48},,6,{16},{48},,7,{16},{48},,8-3[8:1],{16},{48},,3pp4[4:1],{4},{16},,,{48},,3>1[8:1],
{16},{48},,6b,{16},{48},,6,{16},{48},,7-4<6[16:3],{16},,,{48},,1,{6},{12}3>1q5[16:3],
{24},3,{48},5,{16},{48},,6,{16},{48},,7,{16},{48},,8-3[8:1],{16},,,{48},,4,{6},{12}5,
{24},5,{48},3,{16},{48},,7h[16:1],{16},{48},,7h[16:1],{16},{48},,2-5[8:1],{16},,,{48},,7,{6},{12}6<8-4[16:3],
{24},6,{48},4,{16},{48},,3,{16},{48},,2x,{16},1x-6[8:1],{24},1x,{12},1x,{6},{12}4,
{24},4,{48},6<8p4[16:3],{16},{48},,3,{16},{48},,3,{16},{48},,2-5[8:1],{16},,,{48},,6,{16},{48},,7,{6},{24}6-8p4[16:3],
{48},6,{16},{48},,3,{16},{48},,2,{16},{48},,1-6[8:1],{16},,,{48},,5,{6},{12}4,
{24},4,{48},6,{16},{48},,1,{24},2,{48},3,{24},{48}4,{24},{48}5/7-4[8:1],{16},,,{48},,2,{6},{12}3>1-5[16:3],
{24},3,{48},5,{16},{48},,6,{16},{48},,7,{16},{48},,8v3[8:1]*-3[8:1],{16},{48},,8,{16},{64},,,Cf,{6},{12}5,
{24},5,{48},3>1q5[16:3],{16},{48},,6,{16},{48},,6,{16},{48},,7-4[8:1],{16},{48},,7,{16},{48},,2,{6},{12}3,
{24},3-1q5[16:3],{48},5,{16},{48},,6,{16},{48},,7,{16},{48},,8-3[8:1],{16},,,{48},,4,{6},{12}5,
{24},5,{48},3,{16},{48},,8,{24},7,{48},6,{24},{48}5,{24},{48}4h[2:1],{4},{16},,,{48},,B8,
B7,E7,{24}A6,{4},{16},,{48},5h[2:1],{4},{16},,,{48},,B1,
B2,E3,{24}A3,{4},{16},,{48},2h[2:1],{4},{16},,,{48},,E7,
E6,E5,{24}E4,{4},{16},,{48},7h[2:1],{4},{16},,,{48},,E3,
E4,E5,{24}E6,{4},{16},,{48},5/6,{16},{48},,B6/B5,{16},,,{48},,3/4,{16},{48},,B3/B4,
{16},,,{48},,2/1,{16},{48},,B1/B2,{16},,,{48},,7/8,{16},{48},,B8/B7,{16},{48},,6/1,{16},,,{48},,3/4,
{16},{48},,B3/B4,{16},{48},,2/5,{16},{48},,Ch[1:1],{4},{16},,,{48},,1<3[4:1],
{4},{16},,,{48},,B3fh[2:1]/A3h[4:1]/E3h[8:3],{16},{48},,E1,{24},{48}E8,{24},{48}E7,{16},{48},,C,{16},,,{48},,1x,
{16},{48},,2x,{16},{48},,3x,{16},{48},,4x/6b-1[4:21],{16},,,{48},,2,{16},{48},,4h[8:1],{16},,,{48},,3,
{16},{48},,5h[8:1],{16},,,{48},,2,{24},4,{48},2,{24},{48}4,{24},{48}2,{16},{48},,3h[8:1],{16},,,{48},,2,
{24},{48}3,{24},{48}4,{16},{48},,3,{24},{48}4,{24},{192}5,7h,{16},,,{64},,,{192},{48}7,{16},{48},,5h[8:1],{16},,,{48},,6,
{16},{48},,4h[8:1],{16},,,{48},,6,{24},5,{48},6,{24},{48}5,{24},{48}6,{16},{48},,7h[8:1],{16},,,{48},,7,
{24},{48}6,{24},{48}5,{16},{48},,6,{24},{48}5,{24},{192}4,2h,{16},,,{64},,,{192},{48}2,{16},{48},,4h[8:1],{16},,,{48},,3,
{16},{48},,5h[8:1],{16},,,{48},,2,{24},4,{48},3,{24},{48}4,{24},{48}2,{16},{48},,3h[8:1],{16},,,{48},,8/2,
{16},{48},,3/7,{16},{48},,6/4,{16},,,{48},,7-5-7[4:1],{16},,,{48},,7-3[8:1],{16},{48},,1-4[48:5],
{16},{48},,1,{16},{48},,1,{16},{48},,5p7[16:3]*q3[16:3],{16},,,{48},,5,{16},,,{48},,B6,{16},{48},,B4,
{16},{48},,7,{16},{48},,8,{16},{48},,1,{16},{48},,2b-5[48:5],{16},{48},,6,{16},{48},,2-7[48:5],{16},{48},,6,{16},{48},,2>5[8:1],
{16},{48},,6,{16},{48},,2<7[8:1],{16},{48},,6-3-5[16:3],{16},{48},,2-6-2[4:1],{16},{48},,6,{16},{48},,2<8-5[4:1]*<8-3[4:1],{4},,{16},{48},,7<5[8:1],
{16},{48},,7,{16},{48},,8p4[8:1],{16},{48},,8,{16},{48},,1q5[8:1],{16},{48},,1,
{16},{48},,2>4[8:1],{16},{48},,2,{16},{48},,6-8[48:5],{16},{48},,6-4[48:5],{16},{48},,6-2[8:1]*-2[8:1],{4},{16},,,{48},,3h[8:1],
{16},{48},,4h[8:1],{16},{48},,5h[8:1],{16},{48},,6<1[8:1],{16},{48},,6,{16},{48},,5q2[8:1],{16},{48},,5,{16},{48},,6<1[8:1],
{16},{48},,6,{16},{48},,5q2[8:1],{16},{48},,5,{16},{48},,7-3-7[16:3]*-3-6[16:3],{16},{48},,7,{4},{16},{48},,1-5-1[16:3]*-5-2[16:3],
{16},{48},,1,{4},{16},{48},,8b,{4},{16},{48},,7/1,{16},{48},,6/2,
{16},{48},,3-7[8:1]/5-1[8:1],{16},{48},,4,{16},{48},,3-8[8:1]/5-8[8:1],{16},,,{48},,3-5<7[8:1]/5-3q8[8:1],{16},,,{48},,3/5,{16},,,{48},,1,
{16},{48},,2,{16},{48},,3,{16},{48},,4b/6h[8:47],{16},,,{48},,B4,{16},{48},,B2,{16},,,{48},,B4,
{16},{48},,B2,{16},,,{48},,E4,{16},{48},,E2,{16},,,{48},,B3,{16},{48},,B1,
{16},,,{48},,E4/D4/A4,{4},{16},,,{48},,B5,{16},{48},,B7,{16},,,{48},,B5,
{16},{48},,B7,{16},,,{48},,E6,{16},{48},,E8,{16},,,{48},,B6,{16},{48},,B8,
{16},,,{48},,D1/E1/A1,{4},{16},,,{48},,E5,{16},{48},,E3,{16},,,{48},,B4,
{16},{48},,B2,{16},,,{48},,E4,{16},{48},,E2,{16},,,{48},,B3,{16},{48},,B1,
{16},{48},,4q1[48:7],{16},{48},,4,{16},{48},,4,{16},,,{48},,2-4-2[4:1],{16},,,{48},,2-6[8:1]*-6[8:1],{16},{48},,8-5[48:5],
{16},{48},,8,{16},{48},,8,{16},{48},,4pp5[16:3]*qq3[16:3],{16},,,{48},,4,{16},,,{48},,B3,{16},{48},,B5,
{16},{48},,2,{16},{48},,1,{16},{48},,8,{16},{48},,7b-2[48:5],{16},{48},,3,{16},{48},,7-4[48:5],{16},{48},,3,{16},{48},,7>2[8:1],
{16},{48},,3,{16},{48},,7<4[8:1],{16},{48},,3-6-4[16:3],{16},{48},,7>8-5-8[4:1],{16},{48},,3,{16},{48},,7>8-2v3-5[48:13]*>8-2v3-5[48:13],{4},,{16},{48},,2>4[8:1],
{16},{48},,2,{16},{48},,1q5[8:1],{16},{48},,1,{16},{48},,8p4[8:1],{16},{48},,8,
{16},{48},,7<5[8:1],{16},{48},,7,{16},{48},,3-1[48:5],{16},{48},,3-5[48:5],{16},{48},,3-7[8:1]*-7[8:1],{4},{16},,,{48},,6h[8:1],
{16},{48},,5h[8:1],{16},{48},,4h[8:1],{16},{48},,3-1[48:5],{16},{48},,4q8[8:1],{16},{48},,3,{16},{48},,4,{16},{48},,4p8[8:1],
{16},{48},,5-7[48:5],{16},{48},,4,{16},{48},,5,{16},{48},,2-6-4[16:3]*-6-3[16:3],{16},{48},,2,{4},{16},{48},,8-4-6[16:3]*-4-7[16:3],
{16},{48},,8,{4},{16},{48},,1b,{4},{16},{48},,2/8,{16},{48},,3/7,
{16},{48},,6-2[8:1]/4-8[8:1],{16},{48},,5,{16},{48},,6-1[8:1]/4-1[8:1],{16},,,{48},,6-4>2[8:1]/4-6p1[8:1],{16},,,{48},,6/4,{16},,,{48},,8,
{16},{48},,7,{16},{48},,6,{16},{48},,E6h[16:29],{4},{16},{48},,B5h[2:3],{4},{16},{48},,B4h[16:19],
{4},{16},{48},,E4h[8:7],
