&title=Hydra
&artist=James Landino x Akira Complex
&first=-0.2
&des=WARNING! 北川大树 COMING!
&clock_count=4
&lv_5=14
&inote_5=(160)
{1},,
{8}1s5[16:3],,,,,,,,,
{16},Ch[16:3],,,,,,,B2/B3/E3f,,,B6/E6f/B5,,,1s5[16:3]*s5[16:3],,
{16},,,,,,,,,,,,,,,,,Ch[16:3],,,E3/D3,,,,B7/B6/E7f,,,B3/B4/E4f/A3/A4/D4,
{16},,1s5b[16:3],,,,1b,,,,6,,,,6,,,,6,,,Ch[16:3],6,,,,6,,A4/B4f/E5/E4,,,A6/B6f/E7/E6,,,
{16}1bw5[16:2],,
{8},,,
{16}8bw4[16:2],,
{8},,,
(215)
{16}3b-6[8:1],,,,7b-2[8:1]/3b,,,,1b-5[8:1]/7b,,,,7bw3[8:1]/1b,,,,7b,,,,
{128},
(160)
{16},4,,4h[16:5],,E4,A3,,3,,,5h[16:5],,B4,E4,,4,,,6h[16:5],,B5,E5,,5,,,
(212)
{16}7b-2[8:1],,,,1b-5[8:1]/7,,,,
(160)
{16}6,,6h[16:5],,B5,E5,,4,,,7h[16:5],,B6,E6,,5,,,8h[16:5],,B7,E7,,6,,,1hb[8:1],,,2bqq5[8:2],,,1w5[16:1],,,,1b,,6x,7x,6,8,6,1,6,2,6,3,6b,,3x,2x,3,1,3,8,3,7,3,6,
{24}4,5,4,5,4,5,
{16}3x/6x,,1h[16:3]/7h[16:3],,,,1x/7x,,3x/6x,,2h[16:3]/8h[16:3],,,,2x/8x,,1w5[8:4],,
{8},,,,,,,
{16}8b-6[8:1],,,,8-4[8:1]/2,,,,8-6[8:1]/3,,3,,8-4[8:1]/3,,,,8-6[8:1]/2,2,,1,8-4[8:1],,2,,8-6[8:1]/3,,3,,1w5[8:1],,,,1b,,,,1-3[8:1]/6,,,,1-5[8:1]/8,,8,,7/1-3[8:1],,,,1-5[8:1]/7,7,,6,1-3[8:1],,7,,1-5[8:1]/8,,7,,1>4b[8:1]*<6b[8:1]/6,,,,1bw5[8:1],,
{16},,,,,,8-6[8:1]/1,,2,,8-4[8:1]/3,,,,8-6[8:1]/2,2,,1,8-4[8:1]/1,,2,,8-6[8:1]/3,,2,,1,,,,7bw3[8:1],,,,,,,,2bw6[8:1],,,,,,,,
(212)
{16}6b-3[8:1],,,,2b-7[8:1]/6b,,,,8b-4[8:1]/2b,,,,2bw6[8:1]/8b,,,,2b,,,
(160)
{16},
{24},
{16}1b-6[8:1],,,,1-3[8:1]/3,,,,1-6[8:1]/8,,8,,2/1-4[8:1],,,,1-7[8:1]/6,6,,5,1-4[8:1],,3,,1-6[8:1]/8,,7,,1w5[8:1]/3,,,,1b,,,,
{16}8-2[8:1]/2,,,,8-5[8:1]/7,,7,,1/8-3[8:1],,,,8-6[8:1]/5,5,,4,8-3[8:1],,2,,8-5[8:1]/7,,6,,8w4[8:1]/2,,,,8b,,,,
{16}3b/6b,,,,6,5,6,7,6,8,6,1,6b/2b,,,,3,4,3,2,3,1,3,8,
{24}4,7,4,7,4,7,
{16}5bx-1[8:1]/6bx-2[8:1],,,,,,,,8bw4[8:1],,,,,,,,
(212)
{16}3b-6[8:1],,,,7b-2[8:1]/3b,,,,1b-5[8:1]/7b,,,,7bw3[8:1]/1b,,,,7b,,
{32},
(160)
{16},,4h[16:2]/2x,,,,4h[16:3],7,7,6,4h[16:2],2,3,,4hx[16:3],6x,5x,6x,4h[16:2],3,2,,4h[16:3],5,6,6,4h[16:2],2,2,,4hx[16:3],6x,7x,6x,
{16}5hb[16:2]/3b,,,,5h[16:3],3,3,2,5h[16:2],7,6,,5hx[16:3],4x,3x,4x,5h[16:2],8,7,,5h[16:3],3,3,4,5h[16:2],7,7,,5h[16:3],2,2,3,,,,,
{32}1b/8b,2b/7b,3b/6b,4b/5b,
{16}6x,4x,6x,5x,6x,7x,6x,8x,6x,1x,6b/2b,,3x,5x,3x,4x,3x,2x,3x,1x,3x,8x,
{24}4,7,4,7,4,7,
{16}5bx/6bx<6<1[8:4],,,,,,,,1bw5[8:1],,,,,,,,
(212)
{16}6b-3[8:1],,,,2b-7[8:1]/6b,,,,8b-4[8:1]/2b,,,,2bw6[8:1]/8b,,,,2b,,
{24},
(160)
{16},,A8f,,,,,,2,,
{8},
{16},,3h[8:8]/Ch[8:8],,
{8},,,,,,,,
{16},,D8,,,,B8,,,,B3,,,,B4,,,,B6/C,,,,B8,,,,B2/C,,,,B4,,,,
{64}D2f/7h[16:4],E2,,,
{16},,,,,6h[16:4],,,,,,Ch[8:8],,
{8},,,,,,,,
{16},,,,,,E1,,,,E2,,,,E3,,,,B4/C,,,,B6,,,,B8/C,,,,B2,,,,
{16}2h[8:1],,6,,3h[8:1],,7,,4h[8:1],,7,,Ch[8:8],,6,,,,6,,,,6,,,,6,,,,6,,2h[8:1],,6,,3h[8:1],,7,,4h[8:1],,8,,5h[8:1],,1,,6h[8:1],,2,,7h[8:1],,3,,8h[8:1],,4,,1h[8:1],,5,,2hx[8:1],,6,,3h[8:1],,6,,4h[8:1],,6,,Ch[8:8],,6,,,,6,,,,6,,,,6,,,,6,,2h[8:1],,6,,1h[8:1],,6,,3h[8:1],,6,,8h[8:1],,6,,4h[8:1],,6,,7h[8:1],,6,,5h[8:1],,6,,Ch[16:2],,,,
{16}5h[8:1]/6h[8:1],,,5h[8:1]/6h[8:1],,,5x/6x,,4h[8:1]/3h[8:1],,,4h[8:1]/3h[8:1],,,4x/3x,,8h[8:1]/2h[8:1],,,8h[8:1]/2h[8:1],,,8x/2x,,1h[8:1]/7h[8:1],,,1h[8:1]/7h[8:1],,,1x/7x,,
{16}4h[8:1]/6h[8:1],,,1h[8:1]/2h[8:1],,,7/8,,2h[8:1]/6h[8:1],,,3h[8:1]/8h[8:1],,,4/5,,1h[8:1]/8h[8:1],,,5h[8:1]/6h[8:1],,,3/7,,1w5[8:1],,,,1b,,,,
{16}4,6,5,6,7,6,8,6,1,6,2,6,3,6,4,6,3x,5,3,4,3,2,3,1,3,8,3,7,
{24}4,6,4,6,4,6,
{16}5hx[8:1]/2hx[8:1],,,1h[8:1]/8h[8:1],,,5/6,,1hx[8:1]/3hx[8:1],,,7h[8:1]/6h[8:1],,,3/4,,8xw4[8:4],,,,,,,,,,,,,,,
{24},
{128},,
{16}5b,6,4,5,3h[8:1],,,4,4h[16:1],,1,2,8,1,7,8,
{16}3,5,1,7,4h[8:1],,,5,5h[16:1],,7,6,8,7,1,8,
{16}1x,2,3,4,5/1x,4,3,2,1/5x,2,3,4,5/1x,4,3,2,1/5x,2,3,4,5/1x,4,3,2,1x/5x,26,37,48,1x,2,3,4,
{16}1bx,5,2,6,3h[8:1],,,5,5h[16:1],,8,7,1,8,2,1,
{16}3x,7,2,6,1h[8:1],,,7,7,5,6,4,5,3,4,2,
{16}8bw4[8:1],,,,,,,,1bw5[8:1],,,,,,,,3b/6b,,7b/8b,7b/8b,,1b/2b,1b/2b,,3b/4b,,5b/6b,,2b/7b,,,,
{16}1,8,2,7,1h[8:1],,,8,8h[16:1],,6,7,4,5,2,3,
{16}1,7,8,6,1h[8:1],,,7,1h[16:1],,3,2,5,4,7,6,
{16}7>2[8:1],,1,1,7<4[8:1],,5,5,7-3[8:1],,2,2,7,,4,,
{16}2>5[8:1],,4,4,2<7[8:1],,8,8,2-6[8:1],,5,5,2,,8,,
{16}7bx-4[8:1]/2bx-5[8:1],7xb/2xb,,8/1,7b/2b,,,,
{16}6x,7,6,8,6,1,6,2,6b,,3,2,3,1,3,8,3,7,3,6,
{24}4,5,4,5,4,5,
{16}3xb/6xb<6<1[8:4],,,,,,,,1bw5[8:1],,,,,,,,
{16}3b/6b,,5b/4b,5b/4b,,6b/3b,3b/6b,,8bw4[8:1],,2b/6b,,8b,,,,
{16}1b-3[8:1],,,,1-6[8:1],,,,1-4[8:1]/2,,2,,1/8,,8,,1x-6[8:1],2x,3x/7x,4x/8x,3x/1-4[8:1],,2,,1-7[8:1]/6,,6,,1w5[8:1]/2,,,,,,,,
{16}8-5[8:1]/7,,7,,8-3[8:1]/1,,1,,8/7,,7,,8x-5[8:1],1x,2x/6x,3x/7x,2x/8-3[8:1],,1,,8<6[8:1]/5,,5,,8-3b[8:1]*-5b[8:1],,,,8bw4[8:1],,,,,,,,
{16}1-4[8:1]/2,,2,,1-6[8:1]/8,,8,,1-4[8:1]/3h,,3h,,1-6[8:1]/7h,,7h,,1>4[8:1]/5,,4,,1,,,,8bw4[8:1],,,,,,,,1bw5[8:1],,,,,,,,
(212)
{16}6b-3[8:1],,,,2b-7[8:1]/6b,,,,8b-4[8:1]/2b,,,,2bw6[8:1]/8b,,,,2b,,
{32},
{128},
(160)
{16},,5hx[16:2]/7x,,,,5h[16:3],2,2,3,5h[16:2],7,6,,5hx[16:3],3x,4x,3x,5h[16:2],6,7,,5h[16:3],4,3,3,5hx[16:1],7x,A3f,,A4f,,,
{128},,,,,,,
{256},
{16}4hb[16:2]/6b,,,,4h[16:3],2,2,1,4h[16:2],6,5,,4hx[16:3],3x,2x,3x,4h[16:2],7,6,,4h[16:3],2,2,3,4h[16:2],6,6,,4h[16:2],2,2,3,8xw4[8:1],,,,8b,,,,
{16}6,7,6,8,6,1,6,2,6b/3b,,,,3,2,3,1,3,8,3,7,
{24}4,5,4,5,4,5,
{16}4bw8[8:1],,,,,,,,8bw4[8:1],,,,,,,,
(212)
{16}3b-6[8:1],,,,7b-2[8:1]/3b,,,,1b-5[8:1]/7b,,,,7bw3[8:1]/1b,,,,7b,,,,,
{64},,
(160)
{16}1s5b[8:1],,,,,,,,1s5[8:1]*s5[8:1],,,,,,,,1s5[8:1],
