&title=明鏡烈火
&artist= M-UE vs. Reku Mochizuki
&first=0.08
&des=Mr.Duck Neck
&lv_5=14+
&inote_1=
&inote_5=(200){4},,,,,
{32}8b,17,26,53,4,,,,
{8}4xh[2:1],,5,,6,,7pp4[2:1],,,3,3,2,2,2,1h[2:1],,,C,,,8/2q6[8:1],,2/8q4[8:1],,8/5-1[8:1],,56,,27,,2h[4:1],,8h[2:1],,1,,2,,3qq8[2:1],,,7,7,6,6,6,5h[4:1]/1,,,2,2,6,3,7,4-8[8:1],,/4/7-3b[8:1],,7bx/1x,1x,2b>2[1:1],,2/E6f/B6/B5,,,,,l,,6xb,6xb>7[2:1],,,,3x,,2x,,1bs5[2:1],,,,,,,6x,6xbz2b[4:1],,,,4b,
{24}1,8,7,3x,,,2,3,4,
{16},,7,,7,,7,,5x/7x,,5,,5,,5,,3x/5x,,3,,3,,3,,3x/1x,,1,,1,,1,,1,5,1,5,2,6,2,
{16}6,3,4,5,6,7,8,1,2,3/8bq1[2:1],,,,,,,,,,,,
{8},,4xh[8:1],1h[8:1],4xh[8:1],7h[8:1],4xh[8:1],1h[8:1],4xh[8:1],8h[8:1],4xh[8:1],1h[8:1],4xh[8:1],7h[8:1],3xh[8:1],6h[8:1],2xh[8:1],5xh[8:1],1-3[8:1],5h[8:1],1-7[8:1],5h[8:1],1-3[8:1],5h[8:1],1-7[8:1],5h[8:1],1-3[8:1],5h[8:1],1<7[8:1],5h[8:1],1,6h[4:1],B5/E5,,
{16},,3b/7b,,3b-1[8:1]/7b,,,,7-5[8:1],,,,2-5[8:1],,,,6-1[8:1],,,,4>8[8:1],,,,7,,6,,5,,4,,3x-6[8:1]/7x-2[8:1],,,,73,,`,,1-4[8:1]/5-8[8:1],,,,51,,,,3b/7b,,2,,1,,8>3[8:1],,5b,,6,,7,,7,,4x,8x,4x,8x,4x>1[8:1],,,,8,7,6,5,4,,,,1-5[8:1]/7,,2,,17,,6,,48,37,62,51,48,,,,2-8[8:1]/6,,3,,62,,5,,4,15,26,37,48,,5xh[8:1],,1bx,,,7xb,,,6xb/4xb,,,5xb/3xb,,,2xb/Cf,,1h[4:1],,7,,7,,7,,7,,7b/5,,5,,5,,5,,4/5b,,4,,4,,4,,4/2b,,2,,2-8[8:1],,2,,2/6b,5,4,3,2,1,8,7,6/1b,2,3,4,5,6,7,8,1b-5b[8:1]/6xb,,,,1b>3b[8:1]/7b-3b[8:1],,,,1b-5b[8:1]/7b<5b[8:1],,,,1b/7b,,,,
8bh[16:6],,,,,,,,8xqq5[1:1]*pp3[1:1],,,,,,,,,,,,,,,,,,,,,,,,1bw5[120#8:1],,,,,,1xv4q8[1:1]*v6p2b[1:1],,,,,,,,,,,,,,,,,,,,,,,,,,2b-6-2[120#4:1],,,,,,2x>5v2b[120#4:1]*<7v2[120#4:1],,,,,,,,,,,,,,,,,,,,,,,,,,7b-3-7[120#16:3],,,,,,7x,,,,,,,,,,2bh[4:1],,,,5b,,,,3b/6b,,,,4b/7b,,,,8bv5[8:1]/5b,,,,8,,,,
{12}3,5,3,5,,2,2v4[8:1],,,26,,,7,5,7,5,,8,8-3[8:1],,,84,,,4,3,2,5,6,7,1,8,2,8,1,6,1xb,8xb,3xb,7xb,5xb,6xb,2bh[4:1],,,
{24}8x,7x,6x,2x,3x,4x,5x,1h[6:1],,,
{12}5,5bp1[8:1],,8,8b<6[8:1],,,2x,3,4,5bx,,7b,4b,3,2,6b,,
{24}6,7,8,,2,,2,,8,7,6,,6x,,3,2,1,,
{12}5x,5x,5x,1x,1x,1x,8x,5x,6x,1x,4bx,3bx,7bx,5bx>5[1:1],,,,,,,,,,,,,,,,,,,,,,,,
{8}Ch[1:3],,,,,,,,B7/B8,,,,,,,,A6/E6,,,,,,,,5xh[1:1],,,,3x,,,,4x>6[1:1],,,,,,,,A4/E4,,,,,,,,Chf[1:2],,,,,,,,8x,,,,7x,,,,6xh[2:1],,4,4,3,3,5,3,4x,
{16},2x,,,8x,,1/7v4[4:1],,,,17,,2,,3x>8[4:1],,,,37,,6,,5x,,4x,,1,,5,,2h[16:3],,,4xh[16:3],,,5xh[16:2],,7,,,,4,,3,,2xqq5[2:1],,,,2x,,7x,,7,,7,,6x,,6x,,4h[16:6],,,7,,,7,,6,,3,,5,,2,,4xh[16:6],,,2x,,,2x,,1h[16:6],,,6,,,6,,1xs5b[4:1],2x,3x,,,,,,
3,,2,,1,,84,,2b>5[8:1]/6b,,,,28,,7,,6h[4:1],,5,4,3,,6,,2-5b[8:1],,,,26,,7p4[3:1],,,,,,3,,2,,1h[4:1],,,,4,,1,,2x>5[8:1],,,,26,,7,,7v2[8:1],,,4,7,,5,,3v8b[8:1],,,,3/7b-4b[8:1],,,,7/1b,,,,2,,2,,7h[4:1],,3,4,5,,8b,,4xbh[8:1],,,4bxh[8:1],,,4xbh[8:1],,7,,6,,35,,24,,1xh[3:1],,,5bh[8:1],,,5bh[8:1],,3xh[3:1],,,6bh[8:1],,,6bh[8:1],,4b,,,7b/5b,,,1b/2b,,3b/4b,,,,1xv4[8:1]/7xv4[8:1],,,,7/1>3[8:1],,,,6/1h,,5,,4xh[4:1],,6h,7h,8h,,5,,2h/6,,,3h/7,,,8/4h,,1bv6[8:1]/5b,,,,1/5,,4,,3>8[8:1],,,,73,,6,,5,,1,,26,,37,,8bh[16:6],,,4x,,,4x,,7<4[4:1]/3,,,,74,3,2,1,8-3[8:1],,,,58,,5,,6h[4:1]2,,2,3,4,,7,,7h[16:6],,,5xbh[8:1],,,5xbh[8:1],,8,,8,,4,,4,,7,5,7,5,6,4,6,4,5,3,5,3,4,2,4,2,4xbh[8:1],,1xb,,,,8b-3b[8:1]/4b-7[8:1],,,,8xb/4xb,,,,,,4-7b[8:1],,8-2[8:1],,4,,8,,
{24}6bh,5h,4h,3xh/1b-5[8:1],8,7,6x,,,1x,,,7-3[8:1],,,4-6b[8:1],,,7,,,4,,,2b,1,8,7/5b-8[8:1],4h,3h,2xh,,,5x,,,2v5[8:1],,,,,,12,,,8,,,7v4[8:1],,,,,,78,,,1,,,2-4[8:1],,,,,,12,,,8,,,7h[4:1],,,,,,2,,,3,,,4-7b[8:1],,,8-2[8:1],,,4,,,8,,,6bh,5h,4h,3h/1bv4[8:1],8,7,6x,,,1x,,,6-2[8:1],,,3-5b[8:1],,,6,,,3,,,1b,8,7,6/4bV68[8:1],3,2,1x,,,4x,,,2-5[8:1],,,
{16},1,2,,8,,7x-4[8:1],,,8,7,,1,,2b,,,3b/6b,,,7b/4b,,,6b/5b,,,3bxh[4:1]/4b,,5,,6-1[8:1],,5,,6/4-1[8:1],,3,,8p4[8:1]/4,,7,,2-5[8:1]/8,,3,,2/7v4[8:1],,6,,1-5[8:1]/7,,2,,7-3[8:1]/1,,6,,1/7,,2,,2v5[8:1],,,1,2,,8,,7p4[4:1],,,8,7,,1,,2-4[8:1],,,1,2,,8,,7h[4:1],,,,3,,3,,8-4[8:1],,8,,2v5[8:1]/8,,2,,7-3[8:1]/2,,7,,7/4-8[8:1],,4,,4/6v1[8:1],,6,,6/2-5[8:1],,2,,2/8-3[8:1],,8,,8/4v1[8:1],,4,,4/6-2[8:1],,,2,6,,3,,4p8[8:1],,,7,4,,6,,5b,,,6b/1b,,,3b/7b,,,4b/8b,,,3xb/7xb,,1b/5b,,2x/6x,,1,8,1,,2x/6x,,7,8,7,,2x/6x,,1,8,1,,2x/6x,,7,8,7,,E3,E7,E1,E5,B2/E3,E7/B6,B4/A4,/E1/A8,Cf,,7x,6x,5x,,E5f/B5,,8x,1x,2x,,B2/B3f,,7x,6x,5x,,B6f/B5,,2,3,4,,E5f/B4,
{24}8,7,6,5,4,3,2,1,84,73,26,5q7[1:1]/1q3b[1:1],,
