&title=MAHOROBA
&artist=Zekk
&first=0
&lv_5=13+
&des_5=FFFFLaN
&inote_5=
(195){1},{4},,,,{8}4/5,
{16}4,5,3,6,2,7,1,8,1,8,{4}7b/2b,
7<4[8:1],{8}8,1,{4}2<7[8:1],{8}3,4,
{4}5<8[8:1],{8}3,2,1-5[8:1],8-4[8:1],1,8,
{4}3-7[8:1],{8}2,1,{4}8-4[8:1],{8}7,6,
5-1[8:1],2-4[8:1],5,2,7,{16}1,8,1,8,1,8,
{4}2b>5[8:1],{8}8,7,{4}6<1[8:1],{8}5,4,
{4}3<6[8:1],{8}2,1,7-4[8:1],2-5[8:1],7,2,
8-4[8:1],7,6,5,4-8[8:1],3,2,1,
8b,{4},{16}6,7,8/1,2,3,4,6/5,7,8,1,
{4}5-1[8:1],{8}4,4,{4}4-8[8:1],5,
{2}7v4[8:1]/1v4[8:1],{4}5-8[8:1],5/4,
2>5[8:1],{8}8,7,{4}6-2[8:1],1-5[8:1],
8b-5[8:1],8/4-1[8:1],8w4[8:1],8,
{8}1/7,1,1,1,{16}7/2,6,{8}5,4,4,
6,{16}2,3,{8}5,4,{4}5,{8}1,8,
7/2,7/2,6/3,6/3,{16}2,7,2,7,1,1,8,8,
{4}1-5[8:1],1/8-4[8:1],{8}8/3,{16}3,2,{4}1/5w1[8:1],
{24}5,C,{4},,{16},,,{24},{16}B5,B4,B3,
{2}E3,{24}B7,B8,{12},,,,,{24}B4,
B5,{12},,,,,,,,,,,{24}B6,
B2,{12},,,,,,,,,,,{4}1-4[2:1],
{2},{12}8x,7x,6x,
{1}5x-8[4:3],
{24}B1,B2,{12}E3,{24},,,,,,,8xh[6:5],,,,,,,,,,,,1x,
2x,3x,4x,5x,6x,7x,,1x,2x,3x,{12}4x,{24}7x,6x,5x,2x,3x,4x,{4},{8}2h[4:3],
1,8,7,6,5,5h[8:7],4,
3,2,1,8,{4}8h[8:3],{8}7,6,
5h[8:3],4,3,4h[8:3],5,6,7h[4:1],4,
3,2h[8:1],5,5h[8:1],{4}1w5[8:1],1,
{8}2,2,6,6,4,4,7,7,
8/2,1,1/7,8,{16}2b,3,8/4,7,1/6,2,7/3,6,
{4}4b/5,{12}8/1x,8x/1,8/1x,{16}2h[16:3],{8},{16}6h[16:3],{8},4h[8:1],
{2}5b,{16}8,{8},{16}8,{8},8,
{32}7bx/1bx,2x,3x,4x,{4},{24}2bx/8bx,7x,6x,{4}5x/4x-1[8:1],{8}4,5h[4:1],
,2,6h[8:1],3,7h[8:1],4h[4:1],,1,
{32}2x/7bx,6x,{16}5x,{4},{32}8x/2bx-6[8:1],3x,{16}4x,{4},{8}8-3[8:1],8-5[8:1],
,,,2,1/8-4[8:1],7,8/1-5[8:1],2,
8b/1,{4},{8}8-5[8:1],4>1[8:1],8-4[8:1],4,8,
,1,2,3,{16}5x/4,6x,7x,8x,{8}1,1,
{16}2h[8:1]/4h[8:1],{8},{16}5h[8:1]/7h[8:1],{8},8h[16:1]/1h[16:1],{4}2/7,{8}4,5/4,
,6,3,6,5/4,6/3,{4}7/2b>5[8:1],
1-6[8:1],1-4[8:1],{16}1,{8},{16}8,{8},7,
{4}5-2[8:1],5<8[8:1],{16}4-8[8:1],{8},{16}3,{8},2,
{4}1-4[8:1],7-4[8:1],{16}2,{8},{16}1,{8},8,
1-5[8:1],8-4[8:1],1>4[8:1],8<5[8:1],1,8,{4}1xh[16:3],
{2}2h[4:1]/6h[4:1],4h[4:1]/8h[4:1],
5h[4:1]/2h[4:1],{16}4/7h[8:3],{8},{16}3,{8},2,
{4}1h[4:3],{2},{4}8-4[8:1],
8,1h,7h,2h,
6h,3h,5h,4h,
5/4h[4:1],{8}5,4h[4:1],{4}5,5/3h[8:1],
5/3h[4:1],{8}5,3h[4:1],{4}5,5/4h[8:1],
4/6h[4:1],{8}4,7h[4:1],{4}4,1/8h[8:1],
{8}8/1,{16}2,7,{8}2,1/8,{4}2h[8:1]/7-4[8:1],7/4b-8[8:1],
{2}C,B2/B3,
B5/B4,B7/B6,
{4}1/8,2/7,{8}6/3,{16}4,5,{8}4,5,
6,6h[8:1],2,2h[8:1],{12}8,8,8,7/1,{6},{8}4-8-2[4:1],
4,5,6,{4}7-3<5[4:1],{8}8,1,
2,3,{4}5h[4:1],{16}4,3,2,6,{8}7,1,
{4}8-6-4[4:1],{8}4,2,8,7,4/6,1,
{4}8h[4:1],{8}1w5[8:1],1,{4},3/6,
{16}2,3,{8}4,6,5,{16}8,7,{8}6,4,5,
{16}1,2,{8}3,5,4,{16}7,6,{8}5,{32}4,3,2,1,8,7,6,5,
{6}4xh[6:1],{12}5x,4x,6x,3x,{6}8b,1b,8b,
{2}7b/2b,4w8[8:1],
{8}1v3[8:1],1,8,7,6-1[8:1],2-5[8:1],6,2,
8-4[8:1],4,{4}8<5[8:1],{16}3,2,{8}1,1,5,
{4}4>1[8:1],{8}5,6,7-3[8:1],1-5[8:1],7,1,
{4}8-4[8:1],{8}8/1,2,{4}6/3,7b/2b,
{8}4/5-1[8:1],4,3,2,{4}1/8v6[8:1],{8}2,3,
4/5,6,{4}7/2>4[8:1],{8}5/2,6,7/4,3,
{4}5h[8:1]/4h[8:1],{8}4/5,3,{4}5/6h[8:1],{8}6/3,7/2,
{4}8h[8:7]/1-6[8:1],1-4[8:1],1-5[8:1],1w5[8:1],
{24}B1,C,{12}B6/B5/B4,,{8}2/7,6/3,{4}4/5-7[8:1],{8}5/4-2[8:1],3,
4/5,6,{4}5/1>3[8:1],{16}8/1,7,{8}6,4,5,
{4}1h[4:1],{8}4,2h[8:1],5,3h[8:1],6,7/2h[4:1],
,5,4/6,4,3/6,{16}5,4,{8}3/6,7,
{4}2>5[8:1],{8}1,8,{4}7<4[8:1],{8}8,1,
{4}2-6[8:1],8,6<1[8:1],4,
{8}2,2h[8:1],8,8h[8:1],4,4h[8:1],5,5h[8:1],
{2}4-1[8:1],{8}7,{16}3,6,{8}4,5,
{2}4b,B7,
,B7,
Ch[2:3],B5,
,B8/B7,
{4}8-4[8:1],{8}1,2,{4}2-6[8:1],5,
{8}1/7,8,{4}1-4[8:1],8,5,
{16}6,5,{8}6,{16}3,4,{8}3,{16}7,2,8,1,{8}8,1b,
{2}8h[2:1],{24}1,2,3,4h[8:3],{3},{4}5b,
{8}6/4,3,{4}6,{8}4/5-8[8:1],3,
5-2[8:1],4,5-1[8:1],6,{4}5h,4h[4:1],
5,{8}3/6,7,8/2,1,{4}1/8-5[8:1],
8b/1-4[8:1],1b/8,{8}6,{16}4,5,{8}4,5,
4/6,3,2/8,7,6/1,5,6/4,3,
2/7,1/8,7<5[8:1]/2>4[8:1],8/1,{4}2/7,{16}5x,4,{8}5x,
3h[8:1],4h[8:1],5h[8:1],6h[8:1],4h[8:1],2h[8:1],3h[8:1],5h[8:1],
{2}2h[2:1],{24}1b>4[8:1],8,7,6,{12},{4}1w5[8:1],
E
