&title=Viola Illyria
&artist=Kolaa feat.GUMI
&first=0.05
&des=Green Tea
&lv_5=14
&inote_5=(162){4},,,,{2}4h[2:1],
6h[2:1],
3h[2:1],5h[1:2],
{1}6p4[4:5],
,{2}5h[2:1],
3h[2:1],
6h[1:2],5qq2[4:5],
{1},,{4}2h[2:1],
{8}4,5,{4}6h[2:1],{8}4,3,
{4}2h[2:1],{8}4,5,{4}6,7,
8h[4:1],2h[4:5],{2}1<5[4:3],
{4},,{8},3,4,5,
{4}6h[2:1],{8}4,3,{4}2h[2:1],{8}3,4,
5,6,7,8,{4}1,1s5[1:1],
{1}1h[1:1],
,{32}2/8,
3,{16}4,{8},{32}1/7,2,{16}3,{8},{32}6/8,1,{16}2h[16:3],{4},{8},{32}1/7,
6,{16}5,{8},{32}2/8,7,{16}6,{8},{32}1,8,{16}7h[16:3],{32}2,3,{16}4,{4},{32}8/2,
7,{16}6,{8},{32}7/1,6,{16}5,{8},{32}6/8h[4:1],5,{16}4h[16:7],{2},{32}1,
2,{16}3,{32}7,6,{16}5h[16:3],{8},{4}1-4[8:1]*-6[8:1],1b,
{32}1/8,2,{16}3,{8},{32}1/3,4,{16}5,{8},{32}8/2,3,{16}4h[16:3],{8},{4}7,
{32}2/8,7,{16}6,{8},{32}1/6,5,{16}4,{8},{32}7,6,{16}5h[16:3],{32}1,2,{16}3,{4},{32}8/3,
4,{16}5,{8},{32}7/1,2,{16}3,{8},{32}8/2,3,{16}4h[16:3],{4},{8},{32}8,
7,{16}6,{32}1,2,{16}3h[8:1],,7h[16:3],{8},1w5[8:1],2/8,{4}1b,
{32}7/1,6,{16}5h[16:3],{8},{32}2,6,{16}7h[16:3],{8},{32}3,6,{16}5h[16:3],{8},{32}3,6,{16}7h[16:3],{8},{32}4,
8,{16}1h[16:3],{8},{32}4,8,{16}7h[16:3],{8},{32}3,6,{16}5h[16:3],{8},{4}2,
{32}3/8,4,{16}5h[16:3],{8},{32}7,4,{16}3h[16:3],{8},{32}6,2,{16}1h[16:3],{8},{32}5,2,{16}3h[16:3],{8},{32}6,
2,{16}1h[16:3],{8},{32}7,2,{16}3h[16:3],{8},{32}8,4,{16}5h[16:3],{8},{4}7b,
{32}8/2h[4:1],7,{16}6h[16:3],,,{32},5,{16}4h[16:3],{8}1,{32}2h[4:1],5,{16}6h[16:3],,,{32},7,{16}8,{8},{32}3,
4,{16}5h[16:3],{8}8,{32}7,4,{16}3h[16:3],{8}6,{32}5h[4:1],2,{16}1h[16:3],,,{32},2,{16}3,{8},6/4,
7,5/3,2,6/4,8,5/3,{24}2,1,2,
{4}1b>8[2:1],{2},{4}4V26[4:1],
{8}6,7,8-4[8:1],4-8[8:1],8,3h[8:1],,7-3[8:1],
3,2,1-5[8:1],5-1[8:1],1,6h[8:1],,7v2[8:1],
3,4,5p1[8:1],1>5[8:1],5,7h[8:1],,8,
1/2,{16}3,8,4,7,5,6,8,7,1,6,{4}2b,
{8}7-4[8:1],4-7[8:1],7-2[8:1],2-5[8:1],5-8[8:1],5h[4:1],{4},{8}2-5[8:1],
5-2[8:1],2-7[8:1],7-4[8:1],4-1[8:1]*-8[8:1],4,{4},7-3[8:1],
7/1-6[8:1],1/5-1[8:1],5/2>8[8:3],
{2}2b/5h[2:1],{4}1-5[8:1],1,
7-4[8:1],7/2-6[8:1],{16}2/5-7[16:1],{8},{16}5-3[16:1],{8},5,
{4}1-5[8:1],1/7-3[8:1],{16}7/4-2[16:1],{8},{16}4-6[16:1],{8},4,
{4}8-4[8:1],8/3-7[8:1],{16}3/1-6[16:1],{8},{16}1-4[16:1],{8},1,
8,{16}3,4,2,5,1,6,8-4[8:1],1,2,3,{4}8b/4b,
{8}5/3h[4:1],5,{4}5V73[4:1],{8}5/2h[8:1],{4},{8}2,
1/6h[4:1],1,{4}1V37[4:1],{8}1/8h[8:1],{4},{8}1b-5[8:1],
{4},2b-6[8:1],{8},7b-3[8:1],{4},{1}8b<1[2:1],
{8}5/3,{16}3,4,{4}3h[4:1],{16}6,4,{8}5,{16}2,4,{8}3,
4/6,{16}6,5,{4}6h[4:1],{16}3,5,{8}4,{16}7,5,{8}6,
5/3,{16}3,4,{4}2h[4:1],{16}6,5,{8}7,{16}2,4,{8}3,
4/7,{16}6,4,{4}5h[4:1],{16}2-5[8:1],1,{8}3,{4}8,
{8}4/6,{16}7,5,{4}7h[4:1],{16}3,4,{8}2,{16}6,5,{8}7,
5/3,{16}2,4,{4}2h[4:1],{16}6,5,{8}7,{16}3,4,{8}2,
4/6,{16}6,5,{4}6h[4:1],{16}2,1,{8}3,{16}7,8,{8}6,
5/3,{16}2,1,2h[16:3],{8},{16}7,1p5[8:1]*q5[8:1],8,{8}2,{4}1b,
{8}2/8,{16}2,4,{8}3,3/5,{16}6-8[8:1],4,{8}7,{4}8/6,
{8}7/1,{16}7,5,{8}6,6/4,{16}3-1[8:1],5,{8}2,{4}1/3,
{8}2/8,{16}3,1,{8}3,4/5,{16}7<4[8:1],8,{8}6,{4}7/1,
{8}8/2,{16}7,8,{8}6,5/3,{16}1>4[8:1],8,{8}2,{4}1/7,
{8}8,{16}7,5,{8}6,6/4,{16}3,5,{8}3,{16}2,1,2,3,
{8}2,{16}2,4,{8}3,3/5,{16}6,4,{8}6,{16}7,8,7,6,
{8}7,{16}2,1,{8}2,{16}7,8,{8}7,{16}4,5,{8}4,3/6,
{16}4,5,,8,{8}7,{16}4,5,,2,{8}1,{24}2,8,2,8,2,8,
{8}2-6[8:3],{4},{8}1h[8:1],{4},{16}8,7,6,5,
{8}4<8[8:3],{4},{8}2h[8:1],{4},{16}1,2,3,4,
{8}5p1[8:3],{4},{8}7h[8:1],{4},{16}8,2,{8}8,
{4}1h[8:3]/2h[4:3],{2},{16}4,5,6,7,
2/8,1h,1h,1h,1h,1h,1h,1h,{24}8/2h[4:1],7,6,5,4,3,,1,8,7,6,5,
4/1,2,3,4,5,6,7,8,1,2,3,4,{8}5/1,{24}1,2/8,3/7,{8}4/6,1,
8b/2b,{16}7,5,{8}6,{16}1>3[8:1],8,{8}2,{16}7,6,{8}5,4/5,
7/1,{16}2,4,{8}3,{16}8<6[8:1],1,{8}7,{16}2,3,{8}4,5/4,
{16}2>5[8:1],1,3,1,{8}2,8,{16}7<4[8:1],8,6,8,{8}7,{16}2,1,
{8}3,{16}7,8,{8}6,{16}3,4,{8}2,{16}5,4,{8}6,4h[8:1],
{32}8,7,6,5,4,3,2,1,{8}8/4h[8:1],8h[8:1],{32}4,5,6,7,8,1,2,3,{4}8h[8:1]/4h[8:1],
{24}2,3,4,8,7,6,1,2,3,7,6,5,{2}1w5[8:1],
{24}2,1,2,1,2,1,{8}2,4/5,{24}7,8,7,8,7,8,{8}7,5/4,
{16}2h[32:1],4,3,8h[32:1],6,7,1h[32:1],3,2-6[8:1],7h[32:1],5,6,{4}2b,
{16}7<4[8:1],4,6,8,{8}7,2,{16}2-6[8:1],8,4,6,{8}2,7,
{16}7<4[8:1],8,5,4,7,8,1,2,3>8[8:1],8,4,6,3,7,6,5,
{8}4/3,{16}2,8,5,6,8,4,2v7[8:1],6,4,1,{8}2,{16}4,4,
{8}8,{16}7,1,4,3,1,5,7v2[8:1],3,5,8,{8}7,{16}5,5,
{8}1-3[8:1],{16}7,7,{8}1-7[8:1],{16}5,5,{8}1-5[8:1],{16}6,6,{8}1,{16}4,4,
{8}8-6[8:1],{16}2,2,{8}8-2[8:1],{16}4,4,{8}8-4[8:1],{16}3,3,{8}8,{32}3,2,1,8,
{8}7q3[8:1],{16}4,4,{8}7,{32}4,5,6,7,{8}8p4[8:1],{16}6,6,{8}8,2,
{16}1,8,2,7,3,6,2,7,3,6,4,5,{32}1b,2,3,4,5,6,7,8,
{1}1h[1:1]/5h[1:3],
{2},{4}1,{8}2,3,
{1}4h[1:2],
{4},6,7,8,
{8}8h[2:1],{4},{8}5,3h[2:1],{4},{8}6,
{4}5h[4:1],2h[4:1],4h[4:1],1h[4:1],
{1}8pp3[2:3]*qq5[2:3],
(156),
(140)6h[#1.714279]/2h[#1.714279],
(130){2},(124){4},5,
(118){8}4h[2:1],{4},{8}5,6h[2:1],{4},{8}4,
3h[2:1],5,6,7,{4}8h[#0.5084839],(60){24}1,{6},{48}2/7,3/6,
(40){1}5pp8[2:1]/4qq1[2:1],
