&title=それでも僕らは歌うことをやめない
&artist=葵木ゴウ / 鏡音レン / Leo/need 「プロジェクトセカイ カラフルステージ」より
&first=0.63
&des=S74390E2
&lv_5=13+
&inote_5=(182)
{8}4h[4:1]/6h[4:1],,,6<1[6:1]/5h[4:1],,,,,
{8}3h[4:1]/5h[4:1],,,3>8[6:1]/4h[4:1],,,,,
{16}8,1,8,1,7,2,7,2,6,3,6,3,6-4[8:1],,4V28[4:1]/6,,
{8},,,,,5,2b/8b,,
{16}1v6[8:1],,7,,1,,8v3[8:1],,3,,8,,1,,1h[4:1],,
{16},,6,,7,,2-5[8:1]/8,,,,8,,8<5[8:1],,,,
{16}8>3[8:1],,,,8,,,,7<4[8:1],,1>4[8:1],,7,,1,,
{16},,5-8[8:1],,4,,5,,,,2h[4:1],,5,,6,,
{16}7-4[8:1],,4,,7,,2-5[8:1],,5,,2,,6,,7h[4:1],,
{16},,1,,28,,3h[4:1],,,,5,,4/6-1[8:1],,,,
{16}2-5[8:1]/6,,,,6,,7-4[8:1],,,,3,,2V48[8:3],,,,
{16}2,,7,,7,,7b,,,,1h[8:1],,6,,,,
{16}5/2h[4:5],,,,5,,,,5,,,,5,,,,
{16}5,,,,5,,1,,5,,2,,5,,3,,
{16}5/4h[4:4],,,,6,,,,7,,,,8,,,,
{16}8,,,,4,,7,,4,,6,,4,,5,,
{16}3/5,,,,34,,,,32,,,,31,,,,
{16}38,,,,3,,8,,3-8[8:1],,,,3b/7b,,,,
{16}7-4[8:1],,,,1,,1>5[4:1],,,,,,6V84[8:3]*V48[8:3],,6,,
{16},,,,,,,,,,2h[4:1],,3,,4,,
{16}5/6-1[8:1],,,,56,,5-2[8:1],,,,56,,7,,8h[8:3],,
{16},,,,,,1>4[8:1]/7,,,,1-5[8:1],,5V31[6:1],,1,,
{16}6,,7<4[8:1],,,,78,,,,2-5[8:1],,5qq8[4:2],,6h[8:7],,
{16},,,,,,,,,,,,,,1,,
{16}2/8-4[8:1],,2,,8-2[12:1]*-6[12:1],,,,8,,,,35,,3-5[12:1]/5,,
{16},,3,,6,,7-4[8:1],,,,4,,3,,2-5[8:1],,
{16}5-1[8:1],,2,,6h[4:2],,,,,,2,,3,,46,,
{16}6,5,7,,48,,26,,37,,1/5,,2/8,,,,
{16}3b<1[4:3],,,,,,,,8,,,,,,,,
{16}6>8[4:3],,,,,,,,1,,,,,,3,,
{16}3qq6[4:3],,,,,,,,8,,,,,,5,,
{16}5h[8:3],,,,,,8,,17,,2,,34,,2,,
{16}1pp5[4:2]/5,,,,8,,,,8,,,,7,,7h[4:1],,
{16},,4V68[4:1],,3,,2h[8:3],,,,,,,,1,,
{16}2b/8b,,2b/8b<8[8:9]*>8[8:9],,,,,,,,,,,,,,
{16},,,,,,,,,,,,1b,,,,
{16}2,6,2,6,2,6,2,6,3,7,3,7,3,7,3,7,
{16}3-8[8:1],,,,3b/6b,,7,,6v1[8:1],,1V75[8:1],,6,,2,,
{16}2b-5[8:1],,,,8/2,,7pp2[4:2],,,,,,4,,4h[8:3],,
{16},,,,,,8,,2-6[8:1],,6-1[8:1],,2,,5,,
{16}5h[8:1],,,,3/7V16[4:1],,7/3h[4:1],,,,,,2,,2pp6[4:2],,
{16},,6,,,,6,,7,,8,,,,8,,
{16}8-4[8:1]/4,,,,38,,1-5[8:1],,,,15,,6,,7-3[8:1],,
{16},,7V51[4:1],,1,,7,,,,2V84[4:1],,8,,2,,
{16},,6,,6h[4:1],,,,3,,15,,7,,4h[8:5]/6b,,
{16},,1,,1-5[8:1],,1,,1b,,,,3,,28,,
{16}7h[4:1],,,,1-4[8:1],,8,,,,7-3[8:1],,6,,7,,
{16}2h[4:1],,,,4,,56,,7-4[8:1],,4v1[8:1],,7,,3,,
{16}2bV48[6:1],,,,28,,7,,6V84[6:1],,,,2,,2-6[8:1],,
{16},,6,,7,,,,8b-2[8:1],,,2-6[8:1],,,4,,
{16}4-8[8:1],,,,,,,,3b-1[8:1],,,1-5[8:1],,,7,,
{16}7-3[8:1],,,,,,,,5b-7[8:1],,,7-3[8:1],,,1,,
{16}1-5[8:1],,,,1,,6,,7,,8,8,8,,1>4[8:1]/7,,
{16},,1,,5,,7,,4/8-4[8:1],,48,,48,,,,
{16}2-6[8:1],,6-2[8:1],,2,,7-4[8:1],,,,7/1-5[8:1],,,,1/6<1[8:1],,
{16},,6/4-8[8:1],,,,48,,,,7-3[8:1],,3-7[8:1],,7,,
{16}2,,1,,1,,1>4[8:1]/8,,,,1/7-3[8:1],,,,7/2-5[8:1],,
{16},,26,,7,,8,,12,,,,8>3[8:1]*<5[8:1],,,,
{16}8b,,,,1,,1,,2,,3/4-7[8:1],,,,3-1[8:1]/4,,
{16},,38,,7,,6,,8,7,8,7,8-3[8:1],,,,
{16}7/8-4[8:1],,,,28,,,,3,,2,,1-5[8:1],,,,
{16}1/6h[4:2],,,,,,,,{32}4b<7[8:1],3,2,1,{16}8,,,,,,
{16}2>5[8:1],,1,,2,,8<5[8:1],,1,,8,,2,,1-5[8:1],,
{16},,1,,6,,8-4[8:1],,,,48,,2-8[8:1],,,,
{16}2/7-3[8:1],,,,37,,,,1-5[8:1],,5-3[8:1],,1,,7,,
{16},,7,,28,,7,3,6,4,5-3[8:1],,3-7[8:1],,5,,
{16}8,,1,,2h[4:1],,,,4,3,5,,46,,7,8,
{16}7,,3,4,3,4,2h[4:1],,5,,6,,17,,,,
{16}2b/5b,,3,4,3,,2b/7b,,6,5,6,,47,,15,,
{16},,2b/8b,,2h[8:1]/8h[8:1],,,,1b/7b,,1h[16:7]/7h[16:7],,,,,,
{16},,26,35,4,,,,,,,,,,,,
