&title=CHEER UP
&artist=TWICE
&first=0.304
&des=PARADOXE-
&lv_5=14
&inote_5=(86.5)
{24}3h[24:5],,5h[24:5],,,,,,,,,,4h[24:2]/6h[24:5],,,,,4b,,,,4b,,,5h[24:5],,3h[24:5],,,,,,,,,,6h[8:1],,,5h[8:1],,,4h[8:1],,,3,,,4h[12:1]/6h[24:5],,,,,3h[24:2],,4h[24:5],,,,,3h[12:1],,5h[24:7],,,4b,,,,4b,,,4h[12:5]/6,,,,,7h[24:7],,,,,,,
{16}5,5,46,46,3/7-5[12:1],37,2/8-4[12:1],28,1>5[8:1]/7,,8,,1/6,,,,
{24}75,,,3,,3,4,,2h[24:4]/5,,,,1,,8,2,,1,7<4[12:1],,,2-8[12:1]/8,,3,7-3[16:1],,,2-5[16:1],,,
{32}7,,,2,,,,,
{24}4/6<1[12:1],,6,5,,,46,,,3,,,4/2-5[12:1],,2,1,,,28,,,6,,,57,,3,4,,,E7/B7/B6/C/B2/E3/B3,,,5h[16:3],,,
{16}4,4,35,35,26,26,17,17,8p4[12:1],,1/2,,2-6[12:1],,35,,
{24}8-5[12:1]*-4[12:1],,7,1,,,,,,36,,5,4pp6[12:1]*>1[12:1],,,35,,,,,,,,,
{16}1-5[12:1]/8,2,34,5,1/6>1[6:1],
{32}7,7,8,,,,2h[8:1]/6,,,,,,,,
{24}48,,4,7,,7,1-5[12:1],,,26,,,8-4[12:1],,,37,,,2q6[16:1],,,3/7-3[16:1],,8,2>5[16:1],,1,
{24}7,,8,
{16}28,7,6,15,2pp2[8:1],3,48,7,2/6b-8[16:1],,,1,6,,2,,2-5[16:1]/6-8[16:1],,,3,2/6,,4,,6b-1[16:1]/5,,,4,6,,5,,
{32}7/1v3<4[8:1],,1,8,1<7v6[8:1]b,,2,,1s5[8:1]/E2,,,,A8,,,,B1/E1,,,,,,34,,43,,,,26,,,,3-1[16:1]/5,,,,,,4,,3,,,,5,,,,3b-8[16:1]/7<4[16:1],,,,,,4,,3/7,,,,5,,,,4/3v8[16:1],,6,5,7-5-3[12:1],,7,,3,,,,7/1,,,,2b<8[16:1]/8<6[16:1],,,,3/4,,3,,28,,,,,,,,3>1[12:1]/7<4[12:1],,,,6,,1,,3/7,,,,,,,,4>2[16:1]/8v5[16:1],,,,2-6[16:1],,7,,4x/8<4[8:1],,,,7x,,,,2/8x,,1,2,3-5-2[32:3],,8x,,6/4,,7,,
(173)
{16}8-4[8:1]b,,,,3x,,3,,3/5,,3,,23,,3,,34,,3,,7/3,,7,,57,,7,,78,,7,,76,,7,,71,,1,,13,,3,,43,,4,,64,,6,,62,,
{32}2/1h[8:1],3,4,5,,,,,7/8h[8:1],6,5,4,,,,,,37,,,1b/5b,,,,,,,,
{8}3b-1[8:1]/5b-8[8:1],,35,,6-1[8:1]/4-2[8:1],7,46,,3>8[8:1]/5-7[8:1],,35,,4-2[8:1]/6v1[8:1],7,64,,4v1[8:1]*v7[8:1],,4,,3>1[8:1]/5<7[8:1],35,35,,
{16}46,,7,8,7,,2h[4:1]/6,,,,4-7[8:1],,1>4[8:1],,4,,1-6[8:1],,,,3/1-4[8:1],,,,1p5[8:1]/7,,,,1-3-7[4:1]/2,,,,4,,4v1[8:1],,,,2-6[8:1]/4,,,,1/2,,8,,7,,64,,4-6[8:1],5,3,,2/4-2[8:1],,,,4/7qq1[4:1]b,,,,
{32}2xb>5[8:1],,,,,,,,2xb,D3,A3,E4,A4,,,,
{16}4xb/8xb,,2xb-7[16:2]/6xb-3[8:1],,7xb/3xb,,2/6,,,,6b<2[4:1],,,,5,,,,3>7[4:1],,3,,4,,,,4<8[4:1],,,,3,,,,5>1[4:1],,5,,6,,,,7p3[8:1],,,,17,,,,2-5[8:1],,1,,28,,,,6/2,,7-4[8:1],8,1-5[8:1],,7,,1,,6,,5x>2[8:1]/3,,4,,5<8[8:1]/7,,,,3/5qq3[8:1],,,,5v8[8:1]/7,,,,1>4[4:1]/5,,,,4qq7[8:3],,5,,6,,8,,,,1,,1>4[8:1],,,,17,,6,6,5q1[8:1]*-2[8:1],,4,,5,,,,37,,37,,
{32}1xb<7[8:1]/6xb,,,,2-6[8:1]/8,3,4,5,
{8}1xb-5[8:1],2xb>5[8:1]b,1b,2b,6x-1[2:1],,,,,,,,,,1qq7qq5qq3qq1>1[8:60],,,,,,,,,,,,,,,,,,,,,,,,,,,,,,,,,,,,,,,,,,,,,,,,,,,,,,,,5,,,,5,,,,5h[8:6]/3,,3,,3,,3,,1h[8:6]/3,,3,,3,,3,,5h[4:3]/4,,4,,4,,4,,4/1h[4:3],,4,,4,,4,,6h[4:3]/5,5,4,4,3,3,2,2,1h[4:3]/4,4,5,5,6,6,7,7,18,1,13,1,71,1,15,
{16}1,,1xb,8,1,7,1xb,6,2xb,4,2xb,4,3xb,5,2-7[8:1]/6bh[1:3],,,,2,,,,5<8[8:1],,5,,,,,,2-7[8:1],,,,2,,,,5<8[8:1],,5,,,,,,1-5[8:1],,,,1-3[8:1],,,,1<7[8:1],,,,1-5[8:1],,,,1,,,,64,,7,,8,,25,,3,,4,,7-2[8:1]/5,,,,1bh[8:14]/7,,,,3-6[8:1],,3,,,,,,7-2[8:1]b,,,,7,,,,3-6[8:1],,3,,,,,,2h[8:1],,,,
{8}21,13,14,15,86,17,2-5[8:1]/6-4[8:1],17,2qq7[2:1]/6,,6qq3[8:3]b,,,,,,
{32}5xb/1xb,2/6,37,48,1xbh[16:9]/5b,6,7,8,2xb,3,4,5,6,7,8,2,3xb,4,5,6,7,8,2,3,4xb,5,6,7,8,1,,,
{16}2x-5[8:1]/6x-1[8:1],,,,26,,,,3-8[8:1]/7-4[8:1],,2,,37,,,,57,,8-5[8:1],,,,1-4[8:1]/8,,,,2-4-6[8:1]/1,,,,27,,7,,7,8,7,,2h[4:1]/6,,,,8,,8-6[8:1]/1-6[8:1],,18,,1-4[8:1]*-3[8:1]/8,,,,1-5[8:1],,,,7-4[8:1]/1-7[8:1],,,,1>4[4:1]/7,,,,4q1[16:4]/1x,,5,,6,,8h[4:1],,,,1x,,2,,37,,46,,4>1[8:1]*q8[8:1],5,4,,4p8[8:1]*<7[8:1],,,,4>7[16:3]b,,,,6b-2[8:1]/4b,,,,
{32}6xb/1xb,B6,C,B2,A2,,,,
{16}1xb/8,,2/6xb,,5xb/7,,3-8[8:1]/4-7[8:1],,16,,3b/4b,,,,1b/2b,,3,4,2,,5,,46,,7,,6,,6,,57,,4,5,3,,2,,13,,8,,4,,4,,53,,6,5,7,,8,,1<6[4:1]/7,,2,,13,,3,4,5,,4,5,6,,78,,1-6[8:1]/5,,6,,1>4[8:1],,5,,1,,7,7,8,,16,,5,,4,,1/2-5[8:1],,3/8-4[8:1],,2,,8,,3,4x,2,4,3,,15,,8,7,1,6,8,,25,,2,1,3,7,2,,16,,1,,
{32}1-5[8:1]/8-4[8:1],27,36,45,,,,,1/8<4<1[4:1],,,,A5/E6f/E5/B5,,,,2bh[4:1],,,,,,,,,,,,,,,,,,,,E
