&title=blooming
&artist=安田レイ
&first=0
&des=LOA
&lv_5=13
&inote_5=(173)
{1},
{16},,,,,,,,,,,,4,5,4,5,
{16}3xbh[1:1],,,,,,,,,,,,,,,,
{16}2qq7[8:5],,,,,,3,,3,,,,4,,,,
{16}6xbh[1:1],,,,,,,,,,5,,5,,5,,
{16}5<4[8:5],,,,,,,,5^7b[8:1],,,,,,,,
{16}6/5h[4:1],,,,7,,5h[8:3],,8-5[8:1],,,,,,,,
{16}3/4h[4:1],,,,2,,4h[8:3],,1-4[8:1],,,,,,,,
{16}6-8[8:1]/5h[4:1],,,,6,,4h[8:3],,1-5[8:1],,,,1,,,,
{16}3-1[8:1]/4h[4:1],,,,3,,5h[8:3],,8-4[8:1],,,,8,,,,
{16}3b/6b,,,,4,,2b/6b,,,,5,,3h[8:3]/7b,,,,
{16},,2,,3,,4,,5,,6,,7,,1x/8x,,
{16},,3,,42,,3,,,,6,,75,,6,,
{16}4x-2[8:1],,4x-6[8:1],,4x-1[8:1],,4x-7[8:1],,4x-8[8:1],,,,,,,,
{16}6h[4:3],,,,E1,,,,E6,,E5,,E4,,,,
{16}7h[4:3],,,,E1,,,,E6,,E5,,E4,,,,
{16}8h[4:3],,,,E1,,,,E6,,E5,,E4,,2x/7x,,
{16},,3x/6x,,,,4x^7[8:1]/5x^2[8:1],,,,,,,,,,
{16}3h[4:3],,,,E1,,,,E4,,E5,,E6,,,,
{16}2h[4:3],,,,E1,,,,E4,,E5,,E6,,,,
{16}1h[4:3],,,,E1,,,,E4,,E5,,E6,,7x/8x,,
{16},,1x/2x,,,,36,,3-5[8:1]/6-4[8:1],,,,,,,,
{16}6,,,,5h[4:1]/7,,,,4,,5,,46,,,,
{16}3,,,,4h[4:1]/2,,,,5,,4,,53,,,,
{16}6,,,,5h[4:1]/7,,,,4,,5,,46,,3/7-1[8:1],,
{16},,3-8[8:1],,,,5-1[8:1],,,,2b,,,,3,,
{16}3,,,,2h[4:1]/4,,,,1,,2,,83,,,,
{16}6,,,,7h[4:1]/5,,,,8,,7,,16,,,,
{16}3,,,,2h[4:1]/4,,,,1,,2,,83,,7qq8[8:3],,
{16},,4,,3,,2,,1-5[8:1],,8,,7x,,,,
{16}4h[1:1]/6h[4:1],,,,,,,,3h[4:1],,,,,,6h[4:1],,
{16},,4h[8:5],,6,,,,3h[4:1],,,,,,,,
{16}5h[1:1]/3h[4:1],,,,,,,,6h[4:1],,,,,,3h[4:1],,
{16},,5h[8:5],,3,,,,6bh[4:1],,,,,,,,
{16}3h[8:1]/5,,,,3h[8:1]/6,,,,3h[8:1]/7,,,,28,,,,
{16}6h[8:1]/4,,,,6h[8:1]/3,,,,6h[8:1]/2,,,,71,,,,
{16}2x/5x,,3,4,2,,3,5,2,,3,6,2,,8,,
{16}7x/4x,,6,5,7,,6,4,7,,6,3,7,,1,,
{16}28,,28,,37,,37,,46,,4/6<3[4:1],,,,6bh[4:1],,
{16},,,,2xpp5[8:3]/7x,,,,6^1[8:1],,6,,6^3[8:1],,,,
{16}8x,,,,2pp5[8:3]/7,,,,6^1[8:1],,6,,6^3[8:1],,,,
{16}8x,,,,2pp5[8:3]/7,,,,6^1[8:1],,6,,6^3[8:1],,,,
{16}8x,,,,2pp5[8:3]/7pp2[8:3],,,,2b/7b,,,,,,,,
{16}4^1[8:1]/1,,,,E7/B7/B6,,,,5-2[8:1]/8x,,8,,,,,,
{16}4^1[8:1]*^6[8:1]/1,,,,A4/E5/E4,,,,5-2b[8:1]/8x,,8,,,,,,
{16}4^1[8:1]/1,,,,E7/B7/B6,,,,5-2[8:1]/8x,,8,,,,,,
{16}4x^1[8:1]/1,,4x^6[8:1],,4xb-8[8:1],,,,,,,,17,,A2/E3/D3/A6/E6f/D6,,
{16},,1x/8x,,7qq4[8:3]/2,,,,3^8[8:1],,3,,3^6[8:1],,,,
{16}1x,,,,7qq4[8:3]/2,,,,3^8[8:1],,3,,3^6[8:1],,,,
{16}1x,,,,7qq4[8:3]/2,,,,3^8[8:1],,3,,3^6[8:1],,,,
{16}1x,,,,7qq4[8:3]/2qq4[8:3],,,,7b/2b,,,,,,,,
{16}3>6[2:1]/A6,,,,B8,,,,B4,,,,A2,,,,
{16}3>6[2:1]/A6,,3,,B8,,,,B4,,,,A2,,,,
{16}3>6[2:1]/A6,,,,B8,,,,B4,,,,A2,,,,
{16}3>6[2:1]/6x,,3<6b[8:3]/6x,,,,,,,,,,,,,,
{16}6x/5x,,45,,34,,1x/2x,,18,,78,,2b-6[8:1]/6b,,,,
{16}7-1[8:1],,7,,3-5[8:1],,3,,8,,8,,17,,26,,
{16}3x/5xqq4[1:1]*pp6[1:1],,,,,,,,,,,,,,,,
{16},,,,,,,,5-8[8:1],,5,,4b,,,,
{16}3h[4:1]/7,,,,2,,,,14,,14,,,,3h[4:1]/7,,
{16},,2-5[8:1],,,,1-6[8:1],,,,4,,4,,,,
{16}6h[4:1]/2,,,,7,,,,85,,85,,,,6h[4:1]/2,,
{16},,7-3b[8:1],,8,,1,,,,28,,28,,,,
{16}4<8[4:1],,,,3,,,,5>1b[4:1],,,,7,,,,
{16}4<8[4:1],,,,2,,,,5>1b[4:1],,,,6,,,,
{16}4pp5[4:1],,,,8h[4:1],,,,,,8,,17,,26,,
{16},,7,,65,,7,,,,2,,34,,2,,
{16}1b-4[8:1]/5b,,,,7,,,,5/1-6[8:1],,,,3,,,,
{16}1^4[8:1]/5,,,,7,,,,5/1^6[8:1],,,,3,,,,
{16}1-4[8:1]/5,,,,7,,,,5^2[8:1]/1,,,,7,,,,
{16}1pp4[2:1]/5pp8[2:1],,,,,,,,,,,,,,,,
{16}8-5[8:1]/4,,,,2,,,,4/8-3[8:1],,,,6,,,,
{16}8^5[8:1]/4,,,,2,,,,4/8^3[8:1],,,,6,,,,
{16}8-5[8:1]/4,,,,2,,,,4^7[8:1]/8,,,,2,,,,
{16}8bqq5[4:3]/4b,,,,3,,3,,3,,3,,3,,3,,
{16}3bqq8[4:3],,,,6,,6,,6,,6,,6,,6,,
{16}6bqq3[4:3],,,,1,,1,,1,,1,,1,,1b,,
{16},,24,,24,,24,,15,,15,,15,,15,,
{16}2b-5[8:1]/6b-1[8:1],,,,,,,,7b-4[8:1]/3b-8[8:1],,,,,,,,
{16}2bz6[2:1]/6b,,,,,,1,,1,,1,,1,,1b-5[8:1],,
{16},,4,,4qq8[8:3],,,,7-5[8:1],,7,,7-3[8:1],,,,
{16}6x/7x,,,,4qq8[8:3]/8qq5[8:3],,,,4b/8b,,,,,,,,
{16}1^6[8:1]/6,,,,B6/E6/B5,,,,4q8[8:1]/2x,,2,,,,,,
{16}1^6[8:1]*^3[8:1]/6,,,,A1/E1/E2,,,,4q8b[8:1]/2x,,2,,,,,,
{16}1^6[8:1]/6,,,,B6/E6/B5,,,,4q8[8:1]/2x,,2,,,,,,
{16}16,,27,,38,,4b/1b,,,,5b/8b,,E7,C,E3f,,
{16},,1x/5x,,5xpp1[8:3]/1x,,,,2-4[8:1],,2,,2-6[8:1],,,,
{16}3x/2x,,,,5pp1[8:3]/1,,,,2-4[8:1],,2,,2-6[8:1],,,,
{16}3x/2x,,,,5pp1[8:3]/1,,,,2-4[8:1],,2,,2-6[8:1],,,,
{16}3x/2x,,,,5pp1[8:3]/1pp1[8:3],,,,5b/1b,,,,,,,,
{16}8<2[2:1]/A2,,,,B4,,,,B8,,,,A6,,,,
{16}8<2[2:1]/A2,,8,,B4,,,,B8,,,,A6,,,,
{16}8<2[2:1]/A2,,,,B4,,,,B8,,,,A6,,,,
{16}8<2[2:1]/2x,,8p2b[8:3]/2x,,,,,,,,,,,,,,
{16}2x/1x,,81,,78,,5x/6x,,54,,34,,6b-2[8:1]/2b,,,,
{16}3-6[8:1],,3,,7-2[8:1],,7,,5,,4,,36,,27,,
{16}1x-5qq4[1:1]*-5pp6[1:1]/8x,,,,,,,,,,,,,,,,
{16},,,,,,,,5-8b[8:1],,5,,4b,,,,
{16}2x-6[8:1],,1,,28,,1x-5[8:1],,8,,17,,8x-4[8:1],,7,,
{16}68,,7x-3[8:1],,6,,57,,6,,5,4,5,,36,,
{16}1bq7^8-4[4:5]/8b,,,,,,,,,,,,,,,,
{16},,,,,,,,Ch[2:1],,,,,,{24}8xb,1xb,2xbq7^8-4b[24:79],
{16}3xb,,,,,,,,,,,,,,,,
{16},,,,,,,,,,,,,,,,
{16},,,,,,,,,,,,,,,,
{16},,,,,,,,,,,,,,,,
