&title=Cybernecia Catharsis
&artist=Tanchiky
&first=0.18
&des=JDJDH
&lv_5=14
&inote_5=(736)
{1}
,
(184)
{8}
6x/3x,5,3,4,,5,6,4,3,6,,5,3,6,5,4,
3x,3,3,4x,4,4,5x,5,5,4x,4,4,5,4,5,4,
3x>6[8:23]/6x,4,6,5,,4,3,5,6,3,,4,6,5,3,4,
3x,3,3,4x,4,4,5x,5,5,4x,4,4,4x-8b[8:1],5,4b`Cf,,
{8}
1b/7b<4[8:1],,78,2h[8:2],,1,28,,
2/5>2[8:1],6,7,8,
{16}
1x,2x,1x,2x,
{8}
8-4b[8:1],7/2x,
1,2<7b[8:1],3,4,5,6,7,8,
1x/7x,2,3x/6x,5,
{16}
3,6,4,5,
{8}
1-5b[8:1],,
1b/8b,,
{16}
7,6,5,4,
{8}
3xp7[8:1]*v6[8:1],,,,
5x/8x,1,2x/6x,3,
{16}
8,4,8-4[8:1],4,
{8}
1x,3,
2b-6[8:1]*-5[8:1],,2,,7b-3[8:1]*-4[8:1],,7,,
1b-5[8:1],,1x/6b-2[8:1],,6x/4bw8[8:1],,,,
{8}
6b/2b>5[8:1],,21,7h[8:2],,1,82,3,
7/4<7[8:1],3,2,1,
{16}
8x,7x,8x,7x,
{8}
1-5b[8:1],7x/2,
8,7>2b[8:1],6,5,4,3,2,1,
8x/2x,7,6x/3x,4,
2x/5x,1,
3x/8-4b[8:1],,
{4}
8b/2b,3x-7b[8:1]*-1b[8:1],3b,6xV42b[8:1]*-3b[8:1],
6b,1x-6b[8:1]*v4b[8:1],1b,8x-5[8:1],
4x/8bx-3[8:1],8bx/4x>1[8:1],8x/4bx<7[8:1],
4bx/8x-4[8:1],4x/8b-2[8:1]*-3[8:1],8b-5[8:1]*-6[8:1],8b,
{16}
7x/4,3,2,1,
{8}
8bx-3[8:1]/4bxv7[8:1],,48,,26,1,78,6,
2-4[8:1]/5-1[8:1],,25,,37,4,56,7,
8-2[8:1]/3-7[8:1],,83,,15,8,37,6,
5h[8:2]/1-5[8:1],,,
{16}
6,7,
{8}
8-4[8:1],,38,,
26,3,46,5,1v4[8:1]/7v4[8:1],,17,,
73,5,26,4,8v5[8:1]/2v5[8:1],,82,,
3-8[8:1],3,6-2[8:1],6,1-5[8:1],1,4-8[8:1],4,
2,3,4xv1[8:1]/6xv1[8:1],5x,4bx>1[8:1]/6bx<1[8:1],,4bx/6bx,,
{8}
2x-4[8:1]/8x-4[8:1],,2qq5[8:3]/8,,,,,6,
6x-8[8:1]/4x-8[8:1],,6qq1[8:3]/4,,,,,2,
2h[8:3],,,8,17,2,38,7,26,3,4q1[8:1]/6-1[8:1],,,,,1,
7<4[8:1]/8,6,7/1-5[8:1],2,16,,7/2>5[8:1],1,2/8-4[8:1],7,38,,1-6[8:1]/2-5[8:1],,12,,
4/7-4[8:1],8,2-6[8:1],3,8-4[8:1],1,3,2,15,6,78,1,2-6[8:1]/5<8[8:1],,25,,
{8}
1x-6[8:1],4,1,3-6[8:1],8,3,1-5[8:1],4,1,3-7[8:1],8,3,1xh[8:1],7xh[8:1],5xh[8:1],3xh[8:1],
6-3[8:1],1,6,8-3[8:1],5,8,6-2[8:1],1,6,8-4[8:1],5,8,7xv4[8:1]*v1[8:1],,7x,,
8x>3[8:1],5,8,6>3[8:1],1,6,8q4[8:1],5,8,6p2[8:1],1,6,8xh[8:1],2xh[8:1],4xh[8:1],6xh[8:1],
3<6[8:1],8,3,1<6[8:1],4,1,3q7[8:1],8,3,1p5[8:1],4,1,2xw6[8:1],,2x,,
{4}
4b>4[4:13]/8b<8b[4:13],,,,,,,,
,,,,,,,,
{16}
2/6h[4:12],,,,,,,,,,D3,D4,D5,D6,D7,D8,
{12}
D1,A2,D4,
{4}
A5,A7,,E1,,,,1s5[4:2],,,,
{4}
6x/3x>8>5[4:3],5,3,6,
6x<1<4[4:3],4,6,3,
2x>5>8[4:3],8,2,7,
7x<4-8[4:2],1,7,2,
{8}
34,3,25,2,16,,
56,6,47,7,38,8,
12,2,38,3,
{16}
4,7,5,6,4,7,3,8,
2,1,2,8,3,7,4,6,
{32}
3x,2x,1x,8x,7x,6x,5x,4x,
3x,2x,1x,8x,7x,6x,5x,4x,
{4}
3bx-8b[8:1]/7bx-4b[8:1],3bx/7bx,
{8}
1-6[8:1]/6,2,1/3>8[8:1],4,3/5<8[8:1],4,1-5[8:1]/5,2,
1x-7[8:1]/3xp7[8:1],,1xq5[8:1]/3x-5[8:1],,3x>5[8:2],,3x,,
1>4[8:1],8,7-3[8:1]/1,6,5-8[8:1]/7,4,2-6[8:1]/5,1,
2x-5[8:1]*-7[8:1]/6x,,2xw6[8:1],,2x,,3x-8[8:1]/8x-4[8:1],,38,,
{16}
15,,15,26,37,,,,
{8}
4>1[8:1]/8<5[8:1],,4-7[8:1]/8-3[8:1],,4-8[8:1]/8-4[8:1],,48,,15,26,
3-8[8:1]/7-4[8:1],,37,,6-1[8:1]/2-5[8:1],,62,,
4xq8[8:1]/8x<5[8:1],,4xp8[8:1]/8x>3[8:1],,4x/8x,,5x/6x,4x/7x,
8x-3[8:1]/3x,7,8/6<1[8:1],5,6/4>1[8:1],5,8-4[8:1]/4,7,
8x>2[8:1]/6x-2[8:1],,8x-4[8:1]/6x>4[8:1],,6x<4[8:2],,6x,,
8<5[8:1],1,2-6[8:1]/8,3,4-1[8:1]/2,5,7-3[8:1]/4,8,
7x<4[8:1]*>2[8:1]/3x,,7xw3[8:1],,7x,,6x-1[8:1]/1x-5[8:1],,61,,
{16}
84,,84,73,62,,,,
{8}
5<8[8:1]/1>4[8:1],,5-2[8:1]/1-6[8:1],,5-1[8:1]/1-5[8:1],,51,,
{16}
48,,48,37,
{8}
2v5[8:1]/6v1[8:1],,26,,7v4[8:1]/3v8[8:1],,73,,
15,15,26,26,
{16}
1,7,8,8,
{8}
1b/7b,,
{8}
2-4[8:1],1,2,1-5[8:1],5,1,3-1[8:1],4,3,4-8[8:1],8,4,2xh[8:1],8xh[8:1],6xh[8:1],4xh[8:1],
1-5[8:1],3,1,8-4[8:1],6,8,2-6[8:1],3,2,7-3[8:1],5,7,1xv6[8:1]*v4[8:1],,1x,,
7-5[8:1],8,7,8-4[8:1],4,8,6-8[8:1],5,6,5-1[8:1],1,5,7xh[8:1],1xh[8:1],3xh[8:1],5xh[8:1],
8-4[8:1],6,8,1-5[8:1],3,1,7-3[8:1],6,7,2-6[8:1],4,2,8x-4[8:1]*-4[8:1],,8x,,
{8}
3x>6[8:26]/6x,4,6,5,,4,3,5,6,3,,4,6,3,4,5,
6x,6,6,5x,5,5,4x,4,4,5x,5,5,4,5,4,5,
6x<3[8:23]/3x,5,3,4,,5,6,4,3,6,,5,3,4,6,5,
6x,6,6,5x,5,5,4x,4,4,5x,5,5,5x-1[122.33#12:1]*-1[122.33#12:1],4,6,5bx,
