&title=Daisycutter
&artist=ETIA.
&first=-0.03
&lv_5=14+
&des_5=QINMO
&inote_5=
(191){4},{16},,,,,,,,,,,,,4bx/6h[8:1],
,,,3h[8:1],,5,,6/B2,,,,3/B7,,,,8-4[8:1],
,6,,8,,1-5[8:1],,3,,1,,6,,6,
,4x/3h[8:1],,,,6h[8:1],,5,,3/C,,,,6/C,,,,3/8,
,2,{8}1,{16}7,8,,3-7[8:1],,6-2[8:1],,3x,,6x,
,4xh[8:1],,,,4/5h[8:1],,,,6/C,,,,2/C,,,,1q5[8:1],
,7,,1,,8p4[8:1],,2,,8,,3,,3,
,5h[8:1]/2xh,,,,4h[8:1]/7xh,,,,6-2[8:1]/2-6[8:1],,8/4,,6bx/2bx,,,,7b/3,
,4,,5,,2b/6,,5,,4,,3b/7,,6b/2,
,1b/5,,7-4[8:1],8,6,8,7,,,,2/5,,3/6,,4/7,
,2-5[8:1],1,3,1,2,,7-4[8:1],8,6,8,7,,3bx,,,,3-8[8:1],
4,2,5,3,,6-1[8:1],5,7,4,6,,2x,,2x,
,2b/5,,3h[16:1],{8}4,{16}6h[16:1],5,,7s3[8:1]/8s4[8:1],,6/1,,8b/7b/Cf,,,,2bx-6[8:1],
,8,,2-4[8:1],,5,,2-8[8:1],,7,,2,,6,
,7b-3b[8:1],,5,,7,,2b-6b[8:1],,8,,2,,7x,,7x,
{32},,7b,6,5,4,3,2,1,8,7,6,5,4,3,2,1,8,7,6,5,4,3,2,1,8,7,6,5,4,3,2,
1,8,{16}7b/3b,,6,,5,,6b/2b,,3,,4,,7b/2b,,8b/1b,
,7b-3[8:1],,3V57[8:1],,7,,1-5[8:1],,,,1,,,,7,
8,7,,5,{8}6,{16}3,4,,5/2,,,,3,4,2,
5,3bV51[16:3],,4,,3,,7bv4[8:1],,8,,7,,2b,,2b-6[8:1],
,6b-2[8:1],,2b,,C,,8bz4[8:1],,,,3b,,3b,,,,2b-6[8:1],
,6V42[8:1],,2,,8-4b[8:1],,,,8,,,,2,
1,2,,4,{8}3,{16}6,5,,4/7,,,,6,5,7,
4,6b-2[8:1],,4b-8b[8:1],,6b/B6,,4b/B4,,,,1bx,,8bx/2bx-5[8:1],,,,2/7-3[8:1]*-3[8:1],
,,,7,,1,,,,8h[16:1]/5h[16:1],,7h[16:1]/4h[16:1],,6h[#0.07853317]/3h[#0.07853317],
,2b-6[8:1],,6V42[8:1],,2,,8-4[8:1],,,,8,,,,2,
1,2,,4,{8}3,{16}6,5,,4v1b[8:1]/7v2[8:1],,,,7/4b/Cf,,,,6bV48[16:3],
,5,,6,,2bv5[8:1]*v5[8:1],,1,,2,,7x,,7x,
,1b/6,,7,{8}8,{16}2,1,,4-8[8:1]/5b-1b[8:1],,3b/6,,4/5b,,,,7b-3[8:1],
,3V57[8:1],,7,,1-5b[8:1],,,,1,,,,7,
8,7,,5,{8}6,{16}3,4,,5b/2b,,,,3,4,2,
5,3,8,4,7,5,6,8,7,1,6,2,5,{32}3b,4,5,6,7,8,
1,2,{16}3b-7[1.0995##0.1571]*-7b[4:3],,,,5,,2,,,,4,,,,3<3[8:29]`Cf,
{1},,,{16},6h[4:3],
,,,,,,,,,,,,,,,4xh[8:3],
,,,E5,,6h[8:3],,,,E6,,4xh[8:3],,,,E5,
,6h[8:3],,,,E6,,4xh,,,,3/4xh,{8},
{16},3xh[8:3],,,,2,,4h[8:3],,,,3,,5h[8:3],,,,4,
,6h[4:1],,,,5,,5/6xh,,,,6/5xh,,,,2x/7h[4:1],
,,,2,,3/7h[4:1],,,,3,,4/7h[4:1],,,,4,
,5/7h[4:1],,,,5,,7/6-2[8:1],,,,7/6,,,,6x/3h[4:1],
,,,6,,3h[4:1]/B6,,,,7,,3h[4:1]/B7,,,,8,
,3h[4:1]/B8,,,,1,,3/2-6[8:1],,,,3/2,,,,3xh[8:3],
,4,,5,,6,,5,,4,,3,,4,
,5xh[4:1],,6,,4,,4xh[4:1],,3,,5,,6x,,6,
,6xh[8:3],,5,,4,,3,,4,,5,,6,,5,
,4,,3,{8}4,{16}5,4,,3,,6,,6,,6,
,3xh[8:3],,5,,6,,7,,7h[8:3],,4,,3,,2,
,2xh[4:1],,1,,3,,6xh[4:1],,7,,5,,3x,,3,
,4x,,5,,6,,5,,4,,3,,4h[8:1],,,,7x/1b,
,5b,,4b,,2x/8b,,4b,,5b,,3b/6x,,3x/6b,
,8x/7b,{64},,,,,,,,,,,,7,8,,,,,,,,,,,,,,,{16}1/2,{64},,,,,,,,,,,,1,2,,,,,,,,,,,,,,,{16}6/5b,
{64},,,,,,,,,,,,5,6,,,,,,,,,,,,,,,{16}4/3,{64},,,,,,,,,,,,3,4,,,,,,,,,,,,,,,{16}8/7-4[8:1],
,,,7/6b,,,,1/2-5b[8:1],,,,3b/2-8[8:1],,,,2b/7-3b[8:1],
,,,7b/4-6[8:1],,,,8/4b,,,,7/3b,,3/7b,
,6/2b,,8/4,,7/5,,2/1,,3/7,,1/5,,2/4,,7/8,
,6/5b,,2/8b,,4/3b,,1/7b,,6/5b,,8/2b,,3/4b,,7/1b,
{32},,2/8b,7,6,5,4,3,2,1,8,7,6,5,4,3,2,1,8,7,6,5,4,3,2,1,8,7,6,5,4,3,
2,1,{16}8b/Ch[16:11],,,,,,,,,,,,,,,,1b,
,1b-5[16:1],,,{8}6b-2b[16:1],{16},3b-8[16:1],,3b,,,{8}7b-4b[16:1],
{16},1b-5[16:1],,1b,,,{8}6b-2[16:1],{16},3b-8b[8:1],,,,,,,,5b,
,5b-1b[16:1],,,{8}2b-6[16:1]*-6[16:1],{16},7b-4b[16:1],,7b,,,{8}3b-8b[16:1],
{16},5b-1[16:1]*-1[16:1],,5b,,,{8}2b-6b[16:1],{16},7b-3[16:1],,7bx,,7bx,,,,1bx/6bx,
,,,7x/8h[16:1],,,,8x/7,{32},,1x,2,3,4,,,2x,3,4,5,
,,3x,4,5,6,,,,,,,8x,7,6,5,,,7x,6,5,4,,,,,{16}8b/3b,{32},,,,,,8b,
7,6,5,,,,,,,2b,3,4,5,,,8b,7,6,5,1b,2,3,4,,,1b,8,7,6,
,,1b,2,3,4,,,,,,,7b,6,5,4,,,1b,2,3,4,8b,7,6,5,,,8b,1,2,3,
,,{16}7b/4b,,6-1[8:1],5,7,4,6,,2-5[8:1],,8-5[8:1],,2,,8,
,3,4,3,5,4,5,3,4,3-8[8:1],,5/2,,3b,,,,1bx/7,
,2,5,3,{8}4,{16},1-4[8:1],,7-4b[8:1],,1,,7,
,3x,,3x,,6x/2x,{8}6/2,{16}5x/3x,5p8b[8:1]/3q8b[8:1],,4,,5bx/3bx,,,,1xh[16:1]/7xh[16:1],
,,{8}5/3x,4/6x,{16},8-4[8:1],,7-3[8:1]*-3[8:1],,8,,7,
,2-6[8:1]*-6[8:1],,1-5[8:1],,2>5b[8:1],,1,,2,,6bx,,,,,,7b/4b,
,6,{8}5,{16}3,4,,2b/5b,,7,{8}8,{16}2,1,
,3b,7,4,6,5,1,7,2,6,3,5,4,{32}2b,3,4,5,6,7,
8,1,{16}2b/6b,,,,7/1-5[8:1],,7,{8}1,{16}7,7,,6/1-4[8:1],,6,
{8}1,{16}6,6,,6/5-2[8:1],,6,{8}5,{16}6,6,,7b-3[8:1]/3bx-7[8:1],,,,,,,,2/8-4[8:1],
,2,{8}8,{16}2,2,,3/8-5[8:1],,3,
{8}8,{16}3,3,,4,,3,4,2,5,3,4,2b-6[8:1]/6b-2b[8:1],,,,,,,,3/5-1b[0.3141##0.1571],
,3,{8}5,{16}3,3,,4/5-8b[8:1],,4,
{8}5,{16}4,4,,2/1-6b[8:1],,2,{8}1,{16}2,2,,3b-7b[8:1]/7bx-3b[8:1],,,,,,,,6/4,
,5,{8}3,{16}5,3,,4,6,4,
6,7b>2[8:1]/3b<6[8:1],,,,3b-7[8:1]/7b-3[8:1],,,,7b/3b,,,,5b/1bs5[8:1],,,,1b/8b,
,,,2,6,3,4,1,5,2,6,3,7,4,
8,2,1,3,8,1,2,4,7,5,6,8,7,1,6,3,
4,2bw6[8:1],,,,2b/B2,C,B6,,4,8,3,7,2,6,1,
5,8,7,1,6,8,7,2,5,3b-7[8:1],,,,B3/3bw7[8:1],C,B7,
,3b/Cf,,,,2,4,3,5,4,6,5,7,3,1,4,
8,5b,7,4,6,3,5,2,4,8,7,1,6,2,5,3,
4,{32}2b,3,4,5,6,7,8,1,2,3,4,5,6,7,8,1,2b/6b,3,4,5,6,7,8,1,2,3,4,5,6,7,
8,1,2b/6x,5,4,3,2,1,8,7,6,5,4,3,2,1,8,7,6b/2x,3,4,5,6,7,8,1,2b/6x,5,4,3,2,1,
8,7,{16}6bz2b[16:55]/2bz6b[16:55],
E
